Today is a free download without charge Download

Охотники за бриллиантами / Серии: 1-8 из 8 (Александр Котт) [2011, детектив, WEBRip]

Reply to topic
 
Author
Message

Omen ®

Longevity: 6 years 10 months

Posts: 181090

Торрент-статистика

Post 31-Dec-2016 01:00

[Quote]

Охотники за бриллиантами
Год выпуска: 2011
Производство: студия "РИМ" по заказу "Централ Партнершип"
Жанр: детектив
Продолжительность: 00:53:00
Субтитры: нет
Режиссёр: Александр Котт
В ролях: Алексей Серебряков, Евгений Миронов, Петр Федоров, Владимир Ильин, Александр Новин, Анастасия Немоляева, Мария Аронова, Авангард Леонтьев, Виталий Кищенко, Михаил Горевой, Владимир Симонов
Описание: Ноябрь 1980-го года. Вдова писателя Алексея Толстого становится жертвой дерзкого ограбления: шайка воров выносит из квартиры ценности, включая бриллианты и уникальную брошь "Королевская Лилия", изготовленную специально для Людовика XV. Расследование берeт под личный контроль зам.министра внутренних дел Чурбанов. Дело поручено майору Шахову, опытному и цепкому следователю. Ему навязывают напарника - модника Латышева...
Дополнительная информация: R.G. POWER, автор рипа stillet, реклама отсутствует


Качество: WEBRip
Формат: AVI
Видео кодек: XviD
Аудио кодек: AC3
Видео: MPEG-4 Visual, 720х400, 25 кадр/с, ~1800 Кбит/сек, 0,250 bit/pixel
Аудио: АС3, 44,1 kHz, 2 ch, 192 Кбит/с

MI

Код:
Общее
Полное имя                               : C:\otkat\Видео\Охотники за бриллиантами\Охотники за бриллиантами.2011.WEB-DLRip\01.Охотники за бриллиантами.2011.WEB-DLRip_POWER.avi
Формат                                   : AVI
Формат/Информация                        : Audio Video Interleave
Размер файла                             : 767 Мбайт
Продолжительность                        : 53 м.
Общий поток                              : 2002 Кбит/сек
Библиотека кодирования                   : VirtualDub build 35491/release
Видео
Идентификатор                            : 0
Формат                                   : MPEG-4 Visual
Профиль формата                          : Advanced [email protected]
Параметр BVOP формата                    : 2
Параметр QPel формата                    : Нет
Параметр GMC формата                     : Без точки перехода
Параметр матрицы формата                 : Default (MPEG)
Идентификатор кодека                     : XVID
Идентификатор кодека/Подсказка           : XviD
Продолжительность                        : 53 м.
Битрейт                                  : 1800 Кбит/сек
Ширина                                   : 720 пикселей
Высота                                   : 400 пикселей
Соотношение сторон                       : 16:9
Частота кадров                           : 25,000 кадров/сек
Цветовое пространство                    : YUV
Субдискретизация насыщенности            : 4:2:0
Битовая глубина                          : 8 бит
Тип развёртки                            : Прогрессивная
Метод сжатия                             : С потерями
Бит/(Пиксели*Кадры)                      : 0.250
Размер потока                            : 690 Мбайт (90%)
Библиотека кодирования                   : XviD 73
Аудио
Идентификатор                            : 1
Формат                                   : AC-3
Формат/Информация                        : Audio Coding 3
Расширение режима                        : CM (complete main)
Параметр Endianness формата              : Big
Идентификатор кодека                     : 2000
Продолжительность                        : 53 м.
Вид битрейта                             : Постоянный
Битрейт                                  : 192 Кбит/сек
Каналы                                   : 2 канала
Расположение каналов                     : Front: L R
Частота                                  : 44,1 КГц
Частота кадров                           : 28,711 кадров/сек (1536 spf)
Метод сжатия                             : С потерями
Размер потока                            : 73,6 Мбайт (10%)
Выравнивание                             : Соединение по промежуткам
Продолжительность промежутка             : 35  мс. (0,87 видеокадр)
Время предзагрузки промежутка            : 522  мс.

Скриншоты

Other forum [Profile] [PM]
Display posts from previous:    
Reply to topic

The time now is: Today 08:49

All times are GMT + 3 Hours



You cannot post new topics in this forum
You cannot reply to topics in this forum
You cannot edit your posts in this forum
You cannot delete your posts in this forum
You cannot vote in polls in this forum
You cannot attach files in this forum
You cannot download files in this forum