Today is a free download without charge Download

Райское место / Серии: 1-5 из 100 (Дмитрий Гольдман) [2016, Мелодрама, WEBRip]

Reply to topic
 
Author
Message

Omen ®

Longevity: 6 years 10 months

Posts: 181090

Торрент-статистика

Post 15-Jan-2017 01:00

[Quote]

Райское место
- Год выпуска: 2016
Производство: Front Cinema
Жанр: Мелодрама
Продолжительность: 00:45:00
Субтитры: нет
-Режиссёр: Дмитрий Гольдман-В ролях: Клавдия Дрозд, Светлана Зельбет, Андрей Фединчик, Фёдор Гуринец, Владлена Марчак, Виктория Билан, Александр Давыдов, Инга Нагорная, Олеся Власова, Анна Саливанчук, Тарас Цимбалюк, Павел Москаль, Ирина Дорошенко, Марта Логачева, Евгений Плиско-Куприн, Дмитрий Гаврилов, Янина Соколова, Мальвина Салийчук, Константин Косинский, Сергей Фролов, Сергей Петько, Вадим Головко-Описание: Отель «Райское место» — самый роскошный горнолыжный курорт в Карпатах. И именно там хочет работать Нина Костюк — круглая сирота, живущая в закарпатском селе в доме своего дяди. Однако станет ли «Райское место» для девушки местом, где живет счастье?-Релиз от: -/ Сэмпл-Качество: WEBRip
Формат: AVI
Видео кодек: XviD
Аудио кодек: AC3
Видео: 720х400 (16:9), 25.000 fps, XviD, 1532 Kbps, 0.21 Bits/Pixel
Аудио: 48 kHz, AC3 Dolby Digital, 2 ch, 192 Kbps
-Реклама: Нет-

MI

General
Complete name : Downloads\Райское место.2016.WEB-DLRip.Files-x\001.Райское место.2016.WEB-DLRip.Files-x.avi
Format : AVI
Format/Info : Audio Video Interleave
File size : 650 MiB
Duration : 52mn 26s
Overall bit rate : 1 734 Kbps
Writing application : VirtualDubMod 1.5.10.3 | www.virtualdub-fr.org || (build 2550/release)
Writing library : VirtualDubMod build 2550/release
Video #0
ID : 0
Format : MPEG-4 Visual
Format profile : Advanced [email protected]
Format settings, BVOP : 1
Format settings, QPel : No
Format settings, GMC : No warppoints
Format settings, Matrix : Custom
Codec ID : XVID
Codec ID/Hint : XviD
Duration : 52mn 26s
Bit rate : 1 532 Kbps
Width : 720 pixels
Height : 400 pixels
Display aspect ratio : 16:9
Frame rate : 25.000 fps
Color space : YUV
Chroma subsampling : 4:2:0
Bit depth : 8 bits
Scan type : Progressive
Compression mode : Lossy
Bits/(Pixel*Frame) : 0.213
Stream size : 575 MiB (88%)
Writing library : XviD 73
Audio #1
ID : 1
Format : AC-3
Format/Info : Audio Coding 3
Mode extension : CM (complete main)
Format settings, Endianness : Big
Codec ID : 2000
Duration : 52mn 26s
Bit rate mode : Constant
Bit rate : 192 Kbps
Channel(s) : 2 channels
Channel positions : Front: L R
Sampling rate : 48.0 KHz
Bit depth : 16 bits
Compression mode : Lossy
Stream size : 72.0 MiB (11%)
Alignment : Split accross interleaves
Interleave, duration : 40 ms (1.00 video frame)
Interleave, preload duration : 500 ms

Скриншоты

Other forum [Profile] [PM]
Display posts from previous:    
Reply to topic

The time now is: Today 08:16

All times are GMT + 3 Hours



You cannot post new topics in this forum
You cannot reply to topics in this forum
You cannot edit your posts in this forum
You cannot delete your posts in this forum
You cannot vote in polls in this forum
You cannot attach files in this forum
You cannot download files in this forum