Today is a free download without charge Download

Sandra - Reflections (2006) Compilation [FLAC|Lossless|image + .cue] <Europop, Euro House>

Reply to topic
 
Author
Message

RazBoyNik ®

Gender:

Longevity: 6 years 1 month

Posts: 388

Торрент-статистика

Post 05-Feb-2017 22:01

[Quote]

Sandra - Reflections - Год: 2006
Жанр: Europop, Euro House
Издание: Virgin – 00946 3 76396 2 7
Продолжительность: 00:46:18
Кодек: FLAC
Битрейт: Lossless
Тип рипа: image + .cue
Треклист:
01. Around My Heart (3:23)
02. Stop For A Minute (3:46)
03. Hi! Hi! Hi! (4:17)
04. Maria Magdalena (3:57)
05. In The Heat Of The Night (3:37)
06. Heaven Can Wait (3:24)
07. Everlasting Love (3:47)
08. Hiroshima (4:17)
09. One More Night (4:09)
10. Secret Land (4:06)
11. Innocent Love (3:46)
12. We'll Be Together (3:48)-

Отчёт EAC&#58;

Exact Audio Copy V1.0 beta 3 from 29. August 2011
EAC extraction logfile from 17. August 2013, 14:03
Sandra / Reflections
Used drive : PIONEER DVD-RW DVR-112D Adapter: 2 ID: 1
Read mode : Secure
Utilize accurate stream : Yes
Defeat audio cache : Yes
Make use of C2 pointers : No
Read offset correction : 48
Overread into Lead-In and Lead-Out : No
Fill up missing offset samples with silence : Yes
Delete leading and trailing silent blocks : No
Null samples used in CRC calculations : Yes
Used interface : Installed external ASPI interface
Used output format : User Defined Encoder
Selected bitrate : 1024 kBit/s
Quality : High
Add ID3 tag : No
Command line compressor : C:\Program Files (x86)\Exact Audio Copy\Flac\flac.exe
Additional command line options : -8 -V -T "Date=%year%" -T "Genre=%genre%" -T "COMMENT=ripped by bvstudio™" %source%
TOC of the extracted CD
Track | Start | Length | Start sector | End sector
---------------------------------------------------------
1 | 0:00.00 | 3:23.25 | 0 | 15249
2 | 3:23.25 | 3:45.57 | 15250 | 32181
3 | 7:09.07 | 4:17.32 | 32182 | 51488
4 | 11:26.39 | 3:56.63 | 51489 | 69251
5 | 15:23.27 | 3:37.26 | 69252 | 85552
6 | 19:00.53 | 3:24.37 | 85553 | 100889
7 | 22:25.15 | 3:46.38 | 100890 | 117877
8 | 26:11.53 | 4:17.12 | 117878 | 137164
9 | 30:28.65 | 4:08.38 | 137165 | 155802
10 | 34:37.28 | 4:06.33 | 155803 | 174285
11 | 38:43.61 | 3:46.07 | 174286 | 191242
12 | 42:29.68 | 3:47.64 | 191243 | 208331
Range status and errors
Selected range
Filename F:\Sandra\2006 - Reflections (2006 - Holland - 376 396 2)\Sandra - Reflections.wav
Peak level 100.0 %
Extraction speed 6.9 X
Range quality 100.0 %
Test CRC 081FB44B
Copy CRC 081FB44B
Copy OK
No errors occurred
AccurateRip summary
Track 1 accurately ripped (confidence 8) [1D2FA0C4] (AR v2)
Track 2 accurately ripped (confidence 8) [5F7350ED] (AR v2)
Track 3 accurately ripped (confidence 8) [73349570] (AR v2)
Track 4 accurately ripped (confidence 8) [C9ABBB49] (AR v2)
Track 5 accurately ripped (confidence 8) [34E327B2] (AR v2)
Track 6 accurately ripped (confidence 8) [F3D6426C] (AR v2)
Track 7 accurately ripped (confidence 8) [7E476FD0] (AR v2)
Track 8 accurately ripped (confidence 8) [343865C1] (AR v2)
Track 9 accurately ripped (confidence 8) [151EC9E1] (AR v2)
Track 10 accurately ripped (confidence 8) [54A70611] (AR v2)
Track 11 accurately ripped (confidence 8) [1BCC4D36] (AR v2)
Track 12 accurately ripped (confidence 9) [DFAD2235] (AR v2)
All tracks accurately ripped
End of status report
---- CUETools DB Plugin V2.1.5
[CTDB TOCID: Q2L5yZCl_dRuffxEiccLkY5LYIk-] found
Submit result: Q2L5yZCl_dRuffxEiccLkY5LYIk- has been confirmed
Track | CTDB Status
1 | (8/8) Accurately ripped
2 | (8/8) Accurately ripped
3 | (8/8) Accurately ripped
4 | (8/8) Accurately ripped
5 | (8/8) Accurately ripped
6 | (8/8) Accurately ripped
7 | (8/8) Accurately ripped
8 | (8/8) Accurately ripped
9 | (8/8) Accurately ripped
10 | (8/8) Accurately ripped
11 | (8/8) Accurately ripped
12 | (8/8) Accurately ripped
==== Log checksum 659FE87B0C230EEBA34E03BD88B610E20A15EFE2C9F85567DE4732BF47A01080 ====

Cue Sheet (.cue&#41;&#58;

REM GENRE Pop
REM DATE 2006
REM DISCID 950AD90C
REM COMMENT "ExactAudioCopy v1.0b3"
CATALOG 0094637639627
PERFORMER "Sandra"
TITLE "Reflections"
FILE "Sandra - Reflections.flac" WAVE
TRACK 01 AUDIO
TITLE "Around My Heart"
PERFORMER "Sandra"
ISRC DEG120600226
FLAGS DCP
INDEX 01 00:00:00
TRACK 02 AUDIO
TITLE "Stop For A Minute"
PERFORMER "Sandra"
ISRC DEG120600227
FLAGS DCP
INDEX 00 03:23:20
INDEX 01 03:23:25
TRACK 03 AUDIO
TITLE "Hi! Hi! Hi!"
PERFORMER "Sandra"
ISRC DEG120600228
FLAGS DCP
INDEX 00 07:08:07
INDEX 01 07:09:07
TRACK 04 AUDIO
TITLE "Maria Magdalena"
PERFORMER "Sandra"
ISRC DEG120600229
FLAGS DCP
INDEX 00 11:25:54
INDEX 01 11:26:39
TRACK 05 AUDIO
TITLE "In The Heat Of The Night"
PERFORMER "Sandra"
ISRC DEG120600230
FLAGS DCP
INDEX 00 15:23:06
INDEX 01 15:23:27
TRACK 06 AUDIO
TITLE "Heaven Can Wait"
PERFORMER "Sandra"
ISRC DEG120600231
FLAGS DCP
INDEX 00 19:00:43
INDEX 01 19:00:53
TRACK 07 AUDIO
TITLE "Everlasting Love"
PERFORMER "Sandra"
ISRC DEG120600232
FLAGS DCP
INDEX 00 22:24:59
INDEX 01 22:25:15
TRACK 08 AUDIO
TITLE "Hiroshima"
PERFORMER "Sandra"
ISRC DEG120600233
FLAGS DCP
INDEX 00 26:10:69
INDEX 01 26:11:53
TRACK 09 AUDIO
TITLE "One More Night"
PERFORMER "Sandra"
ISRC DEG120600234
FLAGS DCP
INDEX 00 30:28:59
INDEX 01 30:28:65
TRACK 10 AUDIO
TITLE "Secret Land"
PERFORMER "Sandra"
ISRC DEG120600235
FLAGS DCP
INDEX 00 34:36:39
INDEX 01 34:37:28
TRACK 11 AUDIO
TITLE "Innocent Love"
PERFORMER "Sandra"
ISRC DEG120600236
FLAGS DCP
INDEX 00 38:43:11
INDEX 01 38:43:61
TRACK 12 AUDIO
TITLE "We'll Be Together"
PERFORMER "Sandra"
ISRC DEG120600237
FLAGS DCP
INDEX 00 42:29:29
INDEX 01 42:29:68

Отчёт auCDtect Task manager&#58;

-----------------------
DON'T MODIFY THIS FILE
-----------------------
PERFORMER: auCDtect Task Manager, ver. 1.6.0 RC1 build 1.6.0.1
Copyright (c) 2008-2010 y-soft. All rights reserved
http://y-soft.org
ANALYZER: auCDtect: CD records authenticity detector, version 0.8.2
Copyright (c) 2004 Oleg Berngardt. All rights reserved.
Copyright (c) 2004 Alexander Djourik. All rights reserved.
FILE: Sandra - Reflections.flac
Size: 351312183 Hash: CC4791ADE266948A738FE663511D1C73 Accuracy: -m0
Conclusion: CDDA 100%
Signature: 60851964C9E975E4C2CB58CF40D24D88A20C30DB
Other forum [Profile] [PM]
Display posts from previous:    
Reply to topic

The time now is: Today 13:19

All times are GMT + 3 Hours



You cannot post new topics in this forum
You cannot reply to topics in this forum
You cannot edit your posts in this forum
You cannot delete your posts in this forum
You cannot vote in polls in this forum
You cannot attach files in this forum
You cannot download files in this forum