Today is a free download without charge Download

(Indie, Experimental, Soul, Pop) Theresa Andersson - Live At Le Petit - 2010, FLAC (tracks+.cue), lossless

Reply to topic
 
Author
Message

BiteFly ®

Gender:

Longevity: 8 years 1 month

Posts: 2138

Location: Germany-Russia

Торрент-статистика

Post 11-Dec-2011 00:24

[Quote]

Theresa Andersson - Live At Le Petit- Жанр: Indie, Experimental, Soul, Pop
Год выпуска диска: 2010
Аудио кодек: FLAC
Тип рипа: tracks+.cue
Битрейт аудио: lossless
Продолжительность: 01:14:03
Трэклист:
01. Oh Mary Don't You Weep (8:10)
02. Na Na Na (5:47)
03. Birds Fly Away (7:27)
04. The Waltz (6:42)
05. Hi-Low (4:11)
06. Introducing the Kitchenettes (4:23)
07. On Your Way Down (7:08)
08. Running With Your Eyes Closed (2:51)
09. Innan Du Går (7:29)
10. Blue Skies (7:55)
11. See-Line Woman (6:23)
12. Cost Of Freedom (5:36)-

EAC log

Код:
Exact Audio Copy V0.99 prebeta 5 from 4. May 2009
EAC extraction logfile from 11. April 2010, 18:59
Theresa Andersson / Live At Le Petit
Used drive  : ASUS    DRW-1814BLT   Adapter: 0  ID: 2
Read mode               : Secure
Utilize accurate stream : Yes
Defeat audio cache      : Yes
Make use of C2 pointers : No
Read offset correction                      : 0
Overread into Lead-In and Lead-Out          : No
Fill up missing offset samples with silence : Yes
Delete leading and trailing silent blocks   : No
Null samples used in CRC calculations       : Yes
Used interface                              : Native Win32 interface for Win NT & 2000
Gap handling                                : Appended to previous track
Used output format              : User Defined Encoder
Selected bitrate                : 128 kBit/s
Quality                         : High
Add ID3 tag                     : No
Command line compressor         : C:\Program Files (x86)\Exact Audio Copy\Flac\flac.exe
Additional command line options : -V -8 -T "artist=%a" -T "title=%t" -T "album=%g" -T "date=%y" -T "tracknumber=%n" -T "genre=%m" %s
TOC of the extracted CD
     Track |   Start  |  Length  | Start sector | End sector
    ---------------------------------------------------------
        1  |  0:00.00 |  8:09.72 |         0    |    36746
        2  |  8:09.72 |  5:47.27 |     36747    |    62798
        3  | 13:57.24 |  7:27.33 |     62799    |    96356
        4  | 21:24.57 |  6:41.60 |     96357    |   126491
        5  | 28:06.42 |  4:11.23 |    126492    |   145339
        6  | 32:17.65 |  4:22.40 |    145340    |   165029
        7  | 36:40.30 |  7:08.34 |    165030    |   197163
        8  | 43:48.64 |  2:51.26 |    197164    |   210014
        9  | 46:40.15 |  7:28.65 |    210015    |   243679
       10  | 54:09.05 |  7:55.29 |    243680    |   279333
       11  | 62:04.34 |  6:22.38 |    279334    |   308021
       12  | 68:26.72 |  5:36.09 |    308022    |   333230
Track  1
     Filename C:\EACrips\Theresa Andersson - Live At Le Petit ()\01 - Theresa Andersson - Oh Mary Don't You Weep.wav
     Pre-gap length  0:00:02.00
     Peak level 100.0 %
     Track quality 100.0 %
     Test CRC F091A608
     Copy CRC F091A608
     Copy OK
Track  2
     Filename C:\EACrips\Theresa Andersson - Live At Le Petit ()\02 - Theresa Andersson - Na Na Na.wav
     Peak level 100.0 %
     Track quality 99.9 %
     Test CRC 3AC2A435
     Copy CRC 3AC2A435
     Copy OK
Track  3
     Filename C:\EACrips\Theresa Andersson - Live At Le Petit ()\03 - Theresa Andersson - Birds Fly Away.wav
     Peak level 100.0 %
     Track quality 100.0 %
     Test CRC E48CE213
     Copy CRC E48CE213
     Copy OK
Track  4
     Filename C:\EACrips\Theresa Andersson - Live At Le Petit ()\04 - Theresa Andersson - The Waltz.wav
     Peak level 78.9 %
     Track quality 99.9 %
     Test CRC 3E1D59A9
     Copy CRC 3E1D59A9
     Copy OK
Track  5
     Filename C:\EACrips\Theresa Andersson - Live At Le Petit ()\05 - Theresa Andersson - Hi-Low.wav
     Peak level 100.0 %
     Track quality 100.0 %
     Test CRC 2E567867
     Copy CRC 2E567867
     Copy OK
Track  6
     Filename C:\EACrips\Theresa Andersson - Live At Le Petit ()\06 - Theresa Andersson - Introducing the Kitchenettes.wav
     Peak level 99.4 %
     Track quality 100.0 %
     Test CRC 47E614F2
     Copy CRC 47E614F2
     Copy OK
Track  7
     Filename C:\EACrips\Theresa Andersson - Live At Le Petit ()\07 - Theresa Andersson - On Your Way Down.wav
     Peak level 100.0 %
     Track quality 100.0 %
     Test CRC 16E57836
     Copy CRC 16E57836
     Copy OK
Track  8
     Filename C:\EACrips\Theresa Andersson - Live At Le Petit ()\08 - Theresa Andersson - Running With Your Eyes Closed.wav
     Peak level 100.0 %
     Track quality 99.9 %
     Test CRC F095D794
     Copy CRC F095D794
     Copy OK
Track  9
     Filename C:\EACrips\Theresa Andersson - Live At Le Petit ()\09 - Theresa Andersson - Innan Du Gеr.wav
     Peak level 100.0 %
     Track quality 100.0 %
     Test CRC 6F0BC292
     Copy CRC 6F0BC292
     Copy OK
Track 10
     Filename C:\EACrips\Theresa Andersson - Live At Le Petit ()\10 - Theresa Andersson - Blue Skies.wav
     Peak level 100.0 %
     Track quality 100.0 %
     Test CRC ED7704AC
     Copy CRC ED7704AC
     Copy OK
Track 11
     Filename C:\EACrips\Theresa Andersson - Live At Le Petit ()\11 - Theresa Andersson - See-Line Woman.wav
     Peak level 100.0 %
     Track quality 100.0 %
     Test CRC 9B74AD2E
     Copy CRC 9B74AD2E
     Copy OK
Track 12
     Filename C:\EACrips\Theresa Andersson - Live At Le Petit ()\12 - Theresa Andersson - Cost Of Freedom.wav
     Peak level 100.0 %
     Track quality 100.0 %
     Test CRC 40C00AFC
     Copy CRC 40C00AFC
     Copy OK
No errors occurred
End of status report

auCDtect's log:

Код:
-----------------------
DON'T MODIFY THIS FILE
-----------------------
PERFORMER: auCDtect Task Manager, ver. 1.5.1RC3 build 1.5.1.4
Copyright (c) 2008-2010 y-soft. All rights reserved
http://y-soft.org
ANALYZER: auCDtect: CD records authenticity detector, version 0.8.2
Copyright (c) 2004 Oleg Berngardt. All rights reserved.
Copyright (c) 2004 Alexander Djourik. All rights reserved.
FILE: 12 - Theresa Andersson - Cost Of Freedom.flac
  Size: 27031713 Hash: 4F57147A931D8740BC2E47AB534A182B Accuracy: -m0
  Conclusion: CDDA 99%
  Signature: A5EBF9B6FC46C4F16F9BCDA2E081D4497BC7C8EF
FILE: 11 - Theresa Andersson - See-Line Woman.flac
  Size: 34944129 Hash: A900C598DB4E422E950055D4567F5ADB Accuracy: -m0
  Conclusion: CDDA 99%
  Signature: B3F5BBC8C22EF38BA5957B8E6A3E35CAC4B8E834
FILE: 10 - Theresa Andersson - Blue Skies.flac
  Size: 46656247 Hash: 99402A7967C296CDB576C36F7A2F4BE8 Accuracy: -m0
  Conclusion: CDDA 100%
  Signature: 2BBDBBD0D302442F03009F56F3E351F4C6130350
FILE: 09 - Theresa Andersson - Innan Du Går.flac
  Size: 36329119 Hash: 58CEF1EA8B7DE843F7B2E66791DFD329 Accuracy: -m0
  Conclusion: CDDA 100%
  Signature: 926060457B9B16FBE466B31046EE0EED30D1A5C5
FILE: 08 - Theresa Andersson - Running With Your Eyes Closed.flac
  Size: 15968701 Hash: 75FD13883F61308306B35D481E8B4F33 Accuracy: -m0
  Conclusion: CDDA 100%
  Signature: A562DC42D699BB36C99BAF86A923E637680D6B1F
FILE: 07 - Theresa Andersson - On Your Way Down.flac
  Size: 39815753 Hash: 5C7B10DBACFF2013D2122BC743321D28 Accuracy: -m0
  Conclusion: CDDA 100%
  Signature: 77C0301B714D571F3E8AAB9F4D59200379B0963B
FILE: 06 - Theresa Andersson - Introducing the Kitchenettes.flac
  Size: 20104862 Hash: A037B6335B27BB21D9276E6EC25DC07A Accuracy: -m0
  Conclusion: CDDA 99%
  Signature: A421F9CB066A67320DD4DD82DD7C1C3F47488617
FILE: 05 - Theresa Andersson - Hi-Low.flac
  Size: 22177649 Hash: 0B27DBD374A2DBA8E6BEDC2ED0EE0243 Accuracy: -m0
  Conclusion: CDDA 99%
  Signature: BAB88E21A218BB93C4079B0AC783378DF4B03044
FILE: 04 - Theresa Andersson - The Waltz.flac
  Size: 31316189 Hash: 21ABDF33352FD1616CA0CC4B8142B5E7 Accuracy: -m0
  Conclusion: CDDA 100%
  Signature: C8F8777FC38CC1094E7B812FF76CF84726EDB555
FILE: 03 - Theresa Andersson - Birds Fly Away.flac
  Size: 44449504 Hash: B3266EF8E911BA7D5F157912BB25F196 Accuracy: -m0
  Conclusion: CDDA 100%
  Signature: CA16F0CD116D0233B13ACF99D2AE6B508B9F2A5F
FILE: 02 - Theresa Andersson - Na Na Na.flac
  Size: 31728884 Hash: 1ABC8A0B98744A6FDA0FDBBCDE966E5E Accuracy: -m0
  Conclusion: CDDA 99%
  Signature: 53BBAAB8290A90946514A3B966019F466B1734AA
FILE: 01 - Theresa Andersson - Oh Mary Don't You Weep.flac
  Size: 40958312 Hash: 1C343F9A5C5CECA1D3FF7C85E20A751B Accuracy: -m0
  Conclusion: CDDA 100%
  Signature: D151751C8639AC1E5EA08A4C09FD33CBCD7F50DE

.cue

Код:
REM DISCID A9115B0C
REM COMMENT "ExactAudioCopy v0.99pb5"
FILE "Theresa Andersson - Live At Le Petit ()\01 - Theresa Andersson - Oh Mary Don't You Weep.wav" WAVE
  TRACK 01 AUDIO
    INDEX 01 00:00:00
FILE "Theresa Andersson - Live At Le Petit ()\02 - Theresa Andersson - Na Na Na.wav" WAVE
  TRACK 02 AUDIO
    INDEX 01 00:00:00
FILE "Theresa Andersson - Live At Le Petit ()\03 - Theresa Andersson - Birds Fly Away.wav" WAVE
  TRACK 03 AUDIO
    INDEX 01 00:00:00
FILE "Theresa Andersson - Live At Le Petit ()\04 - Theresa Andersson - The Waltz.wav" WAVE
  TRACK 04 AUDIO
    INDEX 01 00:00:00
FILE "Theresa Andersson - Live At Le Petit ()\05 - Theresa Andersson - Hi-Low.wav" WAVE
  TRACK 05 AUDIO
    INDEX 01 00:00:00
FILE "Theresa Andersson - Live At Le Petit ()\06 - Theresa Andersson - Introducing the Kitchenettes.wav" WAVE
  TRACK 06 AUDIO
    INDEX 01 00:00:00
FILE "Theresa Andersson - Live At Le Petit ()\07 - Theresa Andersson - On Your Way Down.wav" WAVE
  TRACK 07 AUDIO
    INDEX 01 00:00:00
FILE "Theresa Andersson - Live At Le Petit ()\08 - Theresa Andersson - Running With Your Eyes Closed.wav" WAVE
  TRACK 08 AUDIO
    INDEX 01 00:00:00
FILE "Theresa Andersson - Live At Le Petit ()\09 - Theresa Andersson - Innan Du Gеr.wav" WAVE
  TRACK 09 AUDIO
    INDEX 01 00:00:00
FILE "Theresa Andersson - Live At Le Petit ()\10 - Theresa Andersson - Blue Skies.wav" WAVE
  TRACK 10 AUDIO
    INDEX 01 00:00:00
FILE "Theresa Andersson - Live At Le Petit ()\11 - Theresa Andersson - See-Line Woman.wav" WAVE
  TRACK 11 AUDIO
    INDEX 01 00:00:00
FILE "Theresa Andersson - Live At Le Petit ()\12 - Theresa Andersson - Cost Of Freedom.wav" WAVE
  TRACK 12 AUDIO
    INDEX 01 00:00:00
--

_________________
Other forum [Profile] [PM]
Display posts from previous:    
Reply to topic

The time now is: Today 07:56

All times are GMT + 3 Hours



You cannot post new topics in this forum
You cannot reply to topics in this forum
You cannot edit your posts in this forum
You cannot delete your posts in this forum
You cannot vote in polls in this forum
You cannot attach files in this forum
You cannot download files in this forum