Сегодня идет свободное скачивание без начисления Download

Валериан и город тысячи планет / Valerian and the City of a Thousand Planets (Люк Бессон) [2017 г., фантастика, фэнтези, боевик, приключения, BDRip 1080p] | VO

Ответить на тему
 
Автор
Сообщение

Theseus ®

Пол:

Стаж: 6 лет 6 месяцев

Сообщений: 1387

Торрент-статистика

Пост 19-Ноя-2017 21:11

[Цитировать]

Валериан и город тысячи планет / Valerian and the City of a Thousand Planets -Год выхода: 2017
Страна: США
Жанр: фантастика, фэнтези, боевик, приключения
Продолжительность: 02:17:03
Перевод: Любительский (одноголосый, закадровый)
Субтитры: Русские, английские-Режиссер: Люк Бессон-В ролях: Дэйн ДеХаан, Кара Делевинь, Клайв Оуэн, Рианна, Итан Хоук, Херби Хэнкок, Крис У, Сэм Спруэлл, Ален Шаба, Рутгер Хауэр-О фильме: 2700 год. Валериан и Лорелин — космические спецагенты, которые по долгу службы впутались в подозрительное дело и стали невольными участниками то ли межгалактического заговора, то ли аферы причудливых поселенцев планеты Альфа, прибывших туда из различных миров со всех уголков галактик.- -Качество: BDRip 1080p
Формат: MKV
Видео кодек: x.264
Аудио кодек: AC3
Видео: AVC, 1920x804, 23.976 fps, 7222 kbps
Аудио 1: AC-3, 48.0 KHz, 6 ch, 640 Kbps, CBR | RUS
Аудио 2: AC-3, 48.0 KHz, 6 ch, 480 Kbps, CBR | ENG-Рекламы нет-

MI

Формат : Matroska
Версия формата : Version 2
Размер файла : 7,96 Гбайт
Продолжительность : 2 ч. 17 м.
Общий поток : 8289 Кбит/сек
Дата кодирования : UTC 2017-11-19 07:28:18
Программа кодирования : mkvmerge v6.5.0 ('Isn't she lovely') built on Oct 20 2013 12:50:05
Библиотека кодирования : libebml v1.3.0 + libmatroska v1.4.1
Видео
Идентификатор : 1
Формат : AVC
Формат/Информация : Advanced Video Codec
Профиль формата : [email protected]
Настройки формата : CABAC / 5 Ref Frames
Параметр CABAC формата : Да
Параметр RefFrames формата : 5 кадров
Идентификатор кодека : V_MPEG4/ISO/AVC
Продолжительность : 2 ч. 17 м.
Битрейт : 7222 Кбит/сек
Ширина : 1920 пикселей
Высота : 804 пикселя
Соотношение сторон : 2,40:1
Режим частоты кадров : Постоянный
Частота кадров : 23,976 (24000/1001) кадра/сек
Цветовое пространство : YUV
Субдискретизация насыщенности : 4:2:0
Битовая глубина : 8 бит
Тип развёртки : Прогрессивная
Бит/(Пиксели*Кадры) : 0.195
Размер потока : 6,75 Гбайт (85%)
Заголовок : ~V~
Библиотека кодирования : x264 core 152 r2851 ba24899
Настройки кодирования : cabac=1 / ref=5 / deblock=1:-3:-3 / analyse=0x3:0x133 / me=umh / subme=11 / psy=1 / psy_rd=1.10:0.00 / mixed_ref=1 / me_range=32 / chroma_me=1 / trellis=2 / 8x8dct=1 / cqm=0 / deadzone=21,11 / fast_pskip=0 / chroma_qp_offset=-2 / threads=12 / lookahead_threads=1 / sliced_threads=0 / nr=0 / decimate=0 / interlaced=0 / bluray_compat=0 / constrained_intra=0 / bframes=9 / b_pyramid=2 / b_adapt=2 / b_bias=0 / direct=3 / weightb=1 / open_gop=0 / weightp=2 / keyint=240 / keyint_min=23 / scenecut=40 / intra_refresh=0 / rc=2pass / mbtree=0 / bitrate=7222 / ratetol=1.0 / qcomp=0.72 / qpmin=0 / qpmax=69 / qpstep=4 / cplxblur=20.0 / qblur=0.5 / ip_ratio=1.16 / pb_ratio=1.28 / aq=3:0.90
Язык : Английский
Default : Да
Forced : Нет
Аудио #1
Идентификатор : 2
Формат : AC-3
Формат/Информация : Audio Coding 3
Идентификатор кодека : A_AC3
Продолжительность : 2 ч. 17 м.
Вид битрейта : Постоянный
Битрейт : 640 Кбит/сек
Каналы : 6 каналов
Расположение каналов : Front: L C R, Side: L R, LFE
Частота : 48,0 КГц
Частота кадров : 31,250 кадров/сек (1536 SPF)
Битовая глубина : 16 бит
Метод сжатия : С потерями
Размер потока : 629 Мбайт (8%)
Заголовок : VO
Язык : Русский
Service Kind : Complete Main
Default : Да
Forced : Нет
Аудио #2
Идентификатор : 3
Формат : AC-3
Формат/Информация : Audio Coding 3
Идентификатор кодека : A_AC3
Продолжительность : 2 ч. 17 м.
Вид битрейта : Постоянный
Битрейт : 448 Кбит/сек
Каналы : 6 каналов
Расположение каналов : Front: L C R, Side: L R, LFE
Частота : 48,0 КГц
Частота кадров : 31,250 кадров/сек (1536 SPF)
Битовая глубина : 16 бит
Метод сжатия : С потерями
Размер потока : 440 Мбайт (5%)
Язык : Английский
Service Kind : Complete Main
Default : Нет
Forced : Нет
Текст #1
Идентификатор : 4
Формат : UTF-8
Идентификатор кодека : S_TEXT/UTF8
Идентификатор кодека/Информация : UTF-8 Plain Text
Заголовок : Forced
Язык : Русский
Default : Да
Forced : Нет
Текст #2
Идентификатор : 5
Формат : UTF-8
Идентификатор кодека : S_TEXT/UTF8
Идентификатор кодека/Информация : UTF-8 Plain Text
Заголовок : Full
Язык : Русский
Default : Нет
Forced : Нет
Текст #3
Идентификатор : 6
Формат : UTF-8
Идентификатор кодека : S_TEXT/UTF8
Идентификатор кодека/Информация : UTF-8 Plain Text
Заголовок : Forced
Язык : Английский
Default : Нет
Forced : Нет
Текст #4
Идентификатор : 7
Формат : UTF-8
Идентификатор кодека : S_TEXT/UTF8
Идентификатор кодека/Информация : UTF-8 Plain Text
Заголовок : Full
Язык : Английский
Default : Нет
Forced : Нет
Меню
00:00:00.000 : en:Chapter 01
00:12:35.713 : en:Chapter 02
00:17:29.590 : en:Chapter 03
00:23:35.789 : en:Chapter 04
00:32:45.838 : en:Chapter 05
00:41:19.143 : en:Chapter 06
00:47:15.666 : en:Chapter 07
00:56:12.410 : en:Chapter 08
01:04:25.695 : en:Chapter 09
01:11:27.908 : en:Chapter 10
01:20:25.070 : en:Chapter 11
01:28:13.705 : en:Chapter 12
01:35:53.914 : en:Chapter 13
01:41:35.047 : en:Chapter 14
01:53:37.852 : en:Chapter 15
02:02:22.585 : en:Chapter 16

Трейлер

-     - -

_________________
Вне форума [Профиль] [ЛС]
Похожие темы
Форум Тема Автор Торрент Отв. Посл. сообщение
./templates/default/images/folder_dl.gif Обучающая и научно-популярная литература Вернадский Георгий - Русская историография [Лебедева Валерия, 2015 г., 96 kbps, MP3] Omen
1 | 0

0 | 675

2

2015-03-30 18:03
Omen Последнее
./templates/default/images/folder_dl.gif Pop Валерий Сюткин & Light Jazz - Москвич (2015) [MP3|320 кб/с]<Pop, Jazz> Aikivas
1 | 0

0 | 817

6

2015-07-09 22:35
Aikivas Последнее
./templates/default/images/folder_dl.gif Фантастика, фэнтези, ужасы, мистика Валерий Большаков | Супердиверсант Сталина. И один в поле воин (2017) [FB2] }{@R0N
1 | 0

0 | 7919

7

2017-05-14 22:44
}{@R0N Последнее
./templates/default/images/folder_dl.gif Сатира, Юмор Валерий Шамбаров (сост.) | Армия шутит. Антология военного юмора (2017) [FB2] }{@R0N
1 | 0

0 | 8294

7

2017-09-19 14:59
}{@R0N Последнее
./templates/default/images/folder_dl.gif Кулинария Валерий Бестужев | Секреты домашнего копчения (2016) [FB2, EPUB] }{@R0N
1 | 0

0 | 15754

11

2017-10-31 14:01
}{@R0N Последнее
./templates/default/images/folder_dl.gif Новинки (HD|DVD|BD|WEB|TV|SAT|PDTV|-Rip) Валериан и город тысячи планет / Valerian and the City of a Thousand Planets (Люк Бессон) [2017, фантастика, фэнтези, боевик, приключения, WEB-DLRip] L | MUZOBOZ Theseus
2 | 0

0 | 8278

12

2017-11-04 01:45
Theseus Последнее
./templates/default/images/folder_dl.gif Новинки (HD|DVD|BD|WEB|TV|SAT|PDTV|-Rip) Валериан и город тысячи планет / Valerian and the City of a Thousand Planets (Люк Бессон) [2017, фантастика, фэнтези, боевик, приключения, WEB-DLRip] L | MUZOBOZ Theseus
2 | 0

0 | 8058

15

2017-11-04 01:46
Theseus Последнее
./templates/default/images/folder_dl.gif Новинки (BD|HDTV|DVD) Валериан и город тысячи планет / Valerian and the City of a Thousand Planets (Люк Бессон) [2017, фантастика, фэнтези, боевик, приключения, WEB-DL 1080p] L | MUZOBOZ Theseus
1 | 0

0 | 8309

21

2017-11-04 01:50
Theseus Последнее
./templates/default/images/folder_dl.gif Новинки (HD|DVD|BD|WEB|TV|SAT|PDTV|-Rip) Валериан и город тысячи планет / Valerian and the City of a Thousand Planets (Люк Бессон) [2017 г., фантастика, фэнтези, боевик, приключения, BDRip] | VO Theseus
1 | 0

0 | 13660

4

2017-11-19 21:05
Theseus Последнее
./templates/default/images/folder_dl.gif Новинки (HD|DVD|BD|WEB|TV|SAT|PDTV|-Rip) Валериан и город тысячи планет / Valerian and the City of a Thousand Planets (Люк Бессон) [2017 г., фантастика, фэнтези, боевик, приключения, BDRip-AVC] | DUB [iTunes] / AVO Theseus
1 | 0

0 | 1891

4

2017-11-27 16:48
Theseus Последнее
Показать сообщения:    
Ответить на тему

Текущее время: Сегодня 19:06

Часовой пояс: GMT + 3



Вы не можете начинать темы
Вы не можете отвечать на сообщения
Вы не можете редактировать свои сообщения
Вы не можете удалять свои сообщения
Вы не можете голосовать в опросах
Вы не можете прикреплять файлы к сообщениям
Вы не можете скачивать файлы