Today is a free download without charge Download

(Comedy, Vocal, Christmas) Jingle Cats - Meowy Christmas - 1993, FLAC (tracks+.cue), lossless

Reply to topic
 
Author
Message

BiteFly ®

Gender:

Longevity: 8 years 2 months

Posts: 2138

Location: Germany-Russia

Торрент-статистика

Post 17-Dec-2011 21:06

[Quote]

Jingle Cats - Meowy Christmas- Жанр: Comedy, Vocal, Christmas
Год выпуска диска: 1993
Производитель диска: США
Издатель (лейбл): Jingle Cats Music
Номер по каталогу: 45227-2
Страна: США
Аудио кодек: FLAC
Тип рипа: tracks+.cue
Битрейт аудио: lossless
Продолжительность: 00:51:08
Источник (релизер): demonoid.com
Наличие сканов в содержимом раздачи: да
Треклист:
01 Silent Night (3:12)
02 What Child Is This; Hava Nagila (2:44)
03 Dance Of The Reed Flutes (2:21)
04 Up On The Housetop (2:52)
05 God Rest Ye Merry Gentlemen (2:47)
06 Oh Come All Ye Faithful (2:18)
07 Dance Of The Sugarplum Fairies (2:17)
08 Jingle Cats Medley (Jingle Bells, Hark The Herald, We Wish You A Merry Christmas) (2:46)
09 Angels We Have Heard On High (2:23)
10 Jesu, Joy Of Man's Desiring (2:59)
11 Oh Little Town Of Bethlehem (2:03)
12 Carol Of The Bells (1:15)
13 Go Tell It On The Mountain (2:00)
14 Oh Christmas Tree (2:35)
15 Ode To Joy (1:42)
16 Deck The Halls (1:19)
17 Good King Wenceslas (2:12)
18 We Three Kings Of Orient Are (3:09)
19 Waltz Of The Flowers (5:23)
20 Auld Lang Syne (2:27)-Доп. информация:
Рождественские композиции в исполнении кошачего ансамбля.
История возникновения "Поющих котов" началась в декабре 1991 года, когда звукорежиссёра и будущего продюссера Jingle Cats Майкла Сполла (Mike Spalla) попросили записать очередную версию песни Jingle Bells. Ради шутки он принёс в студию своего голосистого кота. Он признается, что эта идея пришла к нему совершенно случайно. Композиция была отправлена на радио под Рождество и имела успех.
К следующему году был готов первый полноценный альбом этого кошачего коллектива, состоящего из 9 представителей семейства кошачьих и нескольких собак - бэк-вокалисток.
Фраза на обложке альбома, гласящая, что композиции исполняют настоящие коты имеет долю правды, но, разумеется, это лишь семплы, записанных ранее мяуканий и тявканий, которые виртуозно подобраны в мелодии на компьюторе.
В конце 1994 года вышло продолжение рождественских кошаче-собачей феерии под названием Here Comes Santa Claws.
В последующих альбомах группа решила отойти от рождественской тематики и альбом Rhythm and Mews представляет собой аранжировки просто популярных композиций включая даже национальный гимн США в исполнении кошачего хора!
-

Лог создания рипа

Код:
EAC extraction logfile from 27. November 2005, 20:49 for CD
Jingle Cats / Meowy Christmas
Used drive  : LITE-ON LTR-16101B   Adapter: 0  ID: 0
Read mode   : Secure with NO C2, accurate stream, disable cache
Read offset correction : 690
Overread into Lead-In and Lead-Out : No
Used output format : Internal WAV Routines
                     44.100 Hz; 16 Bit; Stereo
Other options      :
    Fill up missing offset samples with silence : Yes
    Delete leading and trailing silent blocks : No
    Native Win32 interface for Win NT & 2000
Track  1
     Filename C:\0000\Jingle Cats - Meowy Christmas (1993) [FLAC]\01 - Silent Night.wav
     Pre-gap length  0:00:02.00
     Peak level 68.8 %
     Track quality 100.0 %
     Test CRC 9C9A2DDB
     Copy CRC 9C9A2DDB
     Copy OK
Track  2
     Filename C:\0000\Jingle Cats - Meowy Christmas (1993) [FLAC]\02 - What Child Is This .wav
     Pre-gap length  0:00:01.25
     Peak level 74.8 %
     Track quality 99.9 %
     Test CRC E8AE47D9
     Copy CRC E8AE47D9
     Copy OK
Track  3
     Filename C:\0000\Jingle Cats - Meowy Christmas (1993) [FLAC]\03 - Dance of the Reed Flutes.wav
     Pre-gap length  0:00:02.15
     Peak level 100.0 %
     Track quality 100.0 %
     Test CRC 16516E18
     Copy CRC 16516E18
     Copy OK
Track  4
     Filename C:\0000\Jingle Cats - Meowy Christmas (1993) [FLAC]\04 - Up on the Housetop.wav
     Pre-gap length  0:00:01.15
     Peak level 95.8 %
     Track quality 99.9 %
     Test CRC F8579911
     Copy CRC F8579911
     Copy OK
Track  5
     Filename C:\0000\Jingle Cats - Meowy Christmas (1993) [FLAC]\05 - God Rest Ye Merry Gentlemen.wav
     Pre-gap length  0:00:00.55
     Peak level 100.0 %
     Track quality 100.0 %
     Test CRC 8ECE757C
     Copy CRC 8ECE757C
     Copy OK
Track  6
     Filename C:\0000\Jingle Cats - Meowy Christmas (1993) [FLAC]\06 - Oh Come All Ye Faithful.wav
     Pre-gap length  0:00:01.38
     Peak level 100.0 %
     Track quality 100.0 %
     Test CRC B889F0C5
     Copy CRC B889F0C5
     Copy OK
Track  7
     Filename C:\0000\Jingle Cats - Meowy Christmas (1993) [FLAC]\07 - Dance of the Sugarplum Fairies.wav
     Pre-gap length  0:00:01.72
     Peak level 100.0 %
     Track quality 100.0 %
     Test CRC F43C99F0
     Copy CRC F43C99F0
     Copy OK
Track  8
     Filename C:\0000\Jingle Cats - Meowy Christmas (1993) [FLAC]\08 - Jingle Cats Medley (Jingle Bells, Hark the Herald, We Wish You a Merry Christmas).wav
     Pre-gap length  0:00:02.00
     Peak level 82.6 %
     Track quality 100.0 %
     Test CRC 24FF5B28
     Copy CRC 24FF5B28
     Copy OK
Track  9
     Filename C:\0000\Jingle Cats - Meowy Christmas (1993) [FLAC]\09 - Angels We Have Heard on High.wav
     Pre-gap length  0:00:02.27
     Peak level 66.3 %
     Track quality 100.0 %
     Test CRC E590DF63
     Copy CRC E590DF63
     Copy OK
Track 10
     Filename C:\0000\Jingle Cats - Meowy Christmas (1993) [FLAC]\10 - Jesu, Joy of Man's Desiring.wav
     Pre-gap length  0:00:00.38
     Peak level 100.0 %
     Track quality 99.9 %
     Test CRC 4E5313F5
     Copy CRC 4E5313F5
     Copy OK
Track 11
     Filename C:\0000\Jingle Cats - Meowy Christmas (1993) [FLAC]\11 - Oh Little Town of Bethlehem.wav
     Pre-gap length  0:00:01.65
     Peak level 58.0 %
     Track quality 99.9 %
     Test CRC 15DA9D25
     Copy CRC 15DA9D25
     Copy OK
Track 12
     Filename C:\0000\Jingle Cats - Meowy Christmas (1993) [FLAC]\12 - Carol of the Bells.wav
     Pre-gap length  0:00:02.52
     Peak level 85.4 %
     Track quality 100.0 %
     Test CRC 15D23851
     Copy CRC 15D23851
     Copy OK
Track 13
     Filename C:\0000\Jingle Cats - Meowy Christmas (1993) [FLAC]\13 - Go Tell It on the Mountain.wav
     Pre-gap length  0:00:00.67
     Peak level 62.8 %
     Track quality 100.0 %
     Test CRC E78FB477
     Copy CRC E78FB477
     Copy OK
Track 14
     Filename C:\0000\Jingle Cats - Meowy Christmas (1993) [FLAC]\14 - Oh Christmas Tree.wav
     Pre-gap length  0:00:00.48
     Peak level 94.5 %
     Track quality 100.0 %
     Test CRC 06F768DE
     Copy CRC 06F768DE
     Copy OK
Track 15
     Filename C:\0000\Jingle Cats - Meowy Christmas (1993) [FLAC]\15 - Ode to Joy.wav
     Pre-gap length  0:00:01.35
     Peak level 57.1 %
     Track quality 100.0 %
     Test CRC 68B655AB
     Copy CRC 68B655AB
     Copy OK
Track 16
     Filename C:\0000\Jingle Cats - Meowy Christmas (1993) [FLAC]\16 - Deck the Halls.wav
     Pre-gap length  0:00:02.32
     Peak level 44.8 %
     Track quality 100.0 %
     Test CRC 9BE02D33
     Copy CRC 9BE02D33
     Copy OK
Track 17
     Filename C:\0000\Jingle Cats - Meowy Christmas (1993) [FLAC]\17 - Good King Wenceslas.wav
     Pre-gap length  0:00:02.12
     Peak level 73.7 %
     Track quality 100.0 %
     Test CRC 8D355D9F
     Copy CRC 8D355D9F
     Copy OK
Track 18
     Filename C:\0000\Jingle Cats - Meowy Christmas (1993) [FLAC]\18 - We Three Kings of Orient Are.wav
     Pre-gap length  0:00:01.22
     Peak level 74.6 %
     Track quality 100.0 %
     Test CRC 60C128BE
     Copy CRC 60C128BE
     Copy OK
Track 19
     Filename C:\0000\Jingle Cats - Meowy Christmas (1993) [FLAC]\19 - Waltz of the Flowers.wav
     Pre-gap length  0:00:02.35
     Peak level 87.0 %
     Track quality 100.0 %
     Test CRC 60D77D7B
     Copy CRC 60D77D7B
     Copy OK
Track 20
     Filename C:\0000\Jingle Cats - Meowy Christmas (1993) [FLAC]\20 - Auld Lang Syne.wav
     Pre-gap length  0:00:02.65
     Peak level 98.4 %
     Track quality 100.0 %
     Test CRC 5CABB956
     Copy CRC 5CABB956
     Copy OK
No errors occured
End of status report

Содержание индексной карты (.CUE)

Код:
REM GENRE Vocal
REM DATE 1993
REM DISCID 210BE614
REM COMMENT "ExactAudioCopy v0.95b3"
PERFORMER "Jingle Cats"
TITLE "Meowy Christmas"
FILE "01 Silent Night.wav" WAVE
  TRACK 01 AUDIO
    TITLE "Silent Night"
    PERFORMER "Jingle Cats"
    INDEX 01 00:00:00
  TRACK 02 AUDIO
    TITLE "What Child Is This; Hava Nagila"
    PERFORMER "Jingle Cats"
    INDEX 00 03:10:58
FILE "02 What Child Is This; Hava Nagila.wav" WAVE
    INDEX 01 00:00:00
  TRACK 03 AUDIO
    TITLE "Dance Of The Reed Flutes"
    PERFORMER "Jingle Cats"
    INDEX 00 02:42:12
FILE "03 Dance Of The Reed Flutes.wav" WAVE
    INDEX 01 00:00:00
  TRACK 04 AUDIO
    TITLE "Up On The Housetop"
    PERFORMER "Jingle Cats"
    INDEX 00 02:20:10
FILE "04 Up On The Housetop.wav" WAVE
    INDEX 01 00:00:00
  TRACK 05 AUDIO
    TITLE "God Rest Ye Merry Gentlemen"
    PERFORMER "Jingle Cats"
    INDEX 00 02:51:20
FILE "05 God Rest Ye Merry Gentlemen.wav" WAVE
    INDEX 01 00:00:00
  TRACK 06 AUDIO
    TITLE "Oh Come All Ye Faithful"
    PERFORMER "Jingle Cats"
    INDEX 00 02:45:35
FILE "06 Oh Come All Ye Faithful.wav" WAVE
    INDEX 01 00:00:00
  TRACK 07 AUDIO
    TITLE "Dance Of The Sugarplum Fairies"
    PERFORMER "Jingle Cats"
    INDEX 00 02:15:60
FILE "07 Dance Of The Sugarplum Fairies.wav" WAVE
    INDEX 01 00:00:00
  TRACK 08 AUDIO
    TITLE "Jingle Cats Medley (Jingle Bells, Hark The Herald, We Wish You A Merry Christmas)"
    PERFORMER "Jingle Cats"
    INDEX 00 02:14:43
FILE "08 Jingle Cats Medley (Jingle Bells, Hark The Herald, We Wish You A Merry Christmas).wav" WAVE
    INDEX 01 00:00:00
  TRACK 09 AUDIO
    TITLE "Angels We Have Heard On High"
    PERFORMER "Jingle Cats"
    INDEX 00 02:43:70
FILE "09 Angels We Have Heard On High.wav" WAVE
    INDEX 01 00:00:00
  TRACK 10 AUDIO
    TITLE "Jesu, Joy Of Man's Desiring"
    PERFORMER "Jingle Cats"
    INDEX 00 02:22:40
FILE "10 Jesu, Joy Of Man's Desiring.wav" WAVE
    INDEX 01 00:00:00
  TRACK 11 AUDIO
    TITLE "Oh Little Town Of Bethlehem"
    PERFORMER "Jingle Cats"
    INDEX 00 02:57:32
FILE "11 Oh Little Town Of Bethlehem.wav" WAVE
    INDEX 01 00:00:00
  TRACK 12 AUDIO
    TITLE "Carol Of The Bells"
    PERFORMER "Jingle Cats"
    INDEX 00 02:00:38
FILE "12 Carol Of The Bells.wav" WAVE
    INDEX 01 00:00:00
  TRACK 13 AUDIO
    TITLE "Go Tell It On The Mountain"
    PERFORMER "Jingle Cats"
    INDEX 00 01:14:38
FILE "13 Go Tell It On The Mountain.wav" WAVE
    INDEX 01 00:00:00
  TRACK 14 AUDIO
    TITLE "Oh Christmas Tree"
    PERFORMER "Jingle Cats"
    INDEX 00 01:59:50
FILE "14 Oh Christmas Tree.wav" WAVE
    INDEX 01 00:00:00
  TRACK 15 AUDIO
    TITLE "Ode To Joy"
    PERFORMER "Jingle Cats"
    INDEX 00 02:33:65
FILE "15 Ode To Joy.wav" WAVE
    INDEX 01 00:00:00
  TRACK 16 AUDIO
    TITLE "Deck The Halls"
    PERFORMER "Jingle Cats"
    INDEX 00 01:40:00
FILE "16 Deck The Halls.wav" WAVE
    INDEX 01 00:00:00
  TRACK 17 AUDIO
    TITLE "Good King Wenceslas"
    PERFORMER "Jingle Cats"
    INDEX 00 01:16:53
FILE "17 Good King Wenceslas.wav" WAVE
    INDEX 01 00:00:00
  TRACK 18 AUDIO
    TITLE "We Three Kings Of Orient Are"
    PERFORMER "Jingle Cats"
    INDEX 00 02:10:28
FILE "18 We Three Kings Of Orient Are.wav" WAVE
    INDEX 01 00:00:00
  TRACK 19 AUDIO
    TITLE "Waltz Of The Flowers"
    PERFORMER "Jingle Cats"
    INDEX 00 03:06:65
FILE "19 Waltz Of The Flowers.wav" WAVE
    INDEX 01 00:00:00
  TRACK 20 AUDIO
    TITLE "Auld Lang Syne"
    PERFORMER "Jingle Cats"
    INDEX 00 05:19:55
FILE "20 Auld Lang Syne.wav" WAVE
    INDEX 01 00:00:00

Лог проверки качества

Код:
AUDIOCHECKER v1.2 - by Dester - [email protected]
~~~~~~~~~~~~~~~~~
01 -===- D:\Downloads\Jingle Cats - Meowy Christmas (1993)\01 Silent Night.flac
  Extracted successfully
  Conclusion: This track looks like CDDA with probability 100%
02 -===- D:\Downloads\Jingle Cats - Meowy Christmas (1993)\02 What Child Is This; Hava Nagila.flac
  Extracted successfully
  Conclusion: This track looks like CDDA with probability 100%
03 -===- D:\Downloads\Jingle Cats - Meowy Christmas (1993)\03 Dance Of The Reed Flutes.flac
  Extracted successfully
  Conclusion: This track looks like CDDA with probability 99%
04 -===- D:\Downloads\Jingle Cats - Meowy Christmas (1993)\04 Up On The Housetop.flac
  Extracted successfully
  Conclusion: This track looks like CDDA with probability 99%
05 -===- D:\Downloads\Jingle Cats - Meowy Christmas (1993)\05 God Rest Ye Merry Gentlemen.flac
  Extracted successfully
  Conclusion: This track looks like CDDA with probability 100%
06 -===- D:\Downloads\Jingle Cats - Meowy Christmas (1993)\06 Oh Come All Ye Faithful.flac
  Extracted successfully
  Conclusion: This track looks like CDDA with probability 100%
07 -===- D:\Downloads\Jingle Cats - Meowy Christmas (1993)\07 Dance Of The Sugarplum Fairies.flac
  Extracted successfully
  Conclusion: This track looks like CDDA with probability 100%
08 -===- D:\Downloads\Jingle Cats - Meowy Christmas (1993)\08 Jingle Cats Medley (Jingle Bells, Hark The Herald, We Wish You A Merry Christmas).flac
  Extracted successfully
  Conclusion: This track looks like CDDA with probability 100%
09 -===- D:\Downloads\Jingle Cats - Meowy Christmas (1993)\09 Angels We Have Heard On High.flac
  Extracted successfully
  Conclusion: This track looks like CDDA with probability 100%
10 -===- D:\Downloads\Jingle Cats - Meowy Christmas (1993)\10 Jesu, Joy Of Man's Desiring.flac
  Extracted successfully
  Conclusion: This track looks like CDDA with probability 100%
11 -===- D:\Downloads\Jingle Cats - Meowy Christmas (1993)\11 Oh Little Town Of Bethlehem.flac
  Extracted successfully
  Conclusion: This track looks like CDDA with probability 100%
12 -===- D:\Downloads\Jingle Cats - Meowy Christmas (1993)\12 Carol Of The Bells.flac
  Extracted successfully
  Conclusion: This track looks like CDDA with probability 100%
13 -===- D:\Downloads\Jingle Cats - Meowy Christmas (1993)\13 Go Tell It On The Mountain.flac
  Extracted successfully
  Conclusion: This track looks like CDDA with probability 100%
14 -===- D:\Downloads\Jingle Cats - Meowy Christmas (1993)\14 Oh Christmas Tree.flac
  Extracted successfully
  Conclusion: This track looks like CDDA with probability 100%
15 -===- D:\Downloads\Jingle Cats - Meowy Christmas (1993)\15 Ode To Joy.flac
  Extracted successfully
  Conclusion: This track looks like CDDA with probability 100%
16 -===- D:\Downloads\Jingle Cats - Meowy Christmas (1993)\16 Deck The Halls.flac
  Extracted successfully
  Conclusion: This track looks like CDDA with probability 99%
17 -===- D:\Downloads\Jingle Cats - Meowy Christmas (1993)\17 Good King Wenceslas.flac
  Extracted successfully
  Conclusion: This track looks like CDDA with probability 100%
18 -===- D:\Downloads\Jingle Cats - Meowy Christmas (1993)\18 We Three Kings Of Orient Are.flac
  Extracted successfully
  Conclusion: This track looks like CDDA with probability 100%
19 -===- D:\Downloads\Jingle Cats - Meowy Christmas (1993)\19 Waltz Of The Flowers.flac
  Extracted successfully
  Conclusion: This track looks like CDDA with probability 100%
20 -===- D:\Downloads\Jingle Cats - Meowy Christmas (1993)\20 Auld Lang Syne.flac
  Extracted successfully
  Conclusion: This track looks like CDDA with probability 100%

Скриншот спектра частот

 
-

_________________
Other forum [Profile] [PM]
Display posts from previous:    
Reply to topic

The time now is: Today 15:58

All times are GMT + 3 Hours



You cannot post new topics in this forum
You cannot reply to topics in this forum
You cannot edit your posts in this forum
You cannot delete your posts in this forum
You cannot vote in polls in this forum
You cannot attach files in this forum
You cannot download files in this forum