Today is a free download without charge Download

Inna - Medley (Live Paris Bercy StarFloor 26.11.2011) [2011, Pop, Dance, HDTV 1080i]

Reply to topic
 
Author
Message

BiteFly ®

Gender:

Longevity: 8 years 7 months

Posts: 2138

Location: Germany-Russia

Торрент-статистика

Post 18-Dec-2011 12:06

[Quote]

Inna - Medley (Live Paris Bercy StarFloor 26.11.2011) (HDTV 1080i)- -Год выпуска: 2011
Жанр: Pop
Продолжительность: 00:08:09-Треклист:
01 - Sun Is Up
02 - Un Momento
03 - Club Rocker
-Качество: HDTV
Контейнер: TS
Видео кодек: H.264
Аудио кодек: AC3
Видео: AVC 1920x1080 25.000 fps
Аудио: Dolby AC3 5.1 48.0 KHz 384 Kbps
-

MediaInfo

General
ID : 1 (0x1)
Complete name : D:\Inna - Medley (Paris Bercy StarFloor 26.11.2011) HDTV 1080i.ts
Format : MPEG-TS
File size : 505 MiB
Duration : 8mn 9s
Overall bit rate : 8 649 Kbps
Maximum Overall bit rate : 35.5 Mbps
Video
ID : 4113 (0x1011)
Menu ID : 1 (0x1)
Format : AVC
Format/Info : Advanced Video Codec
Format profile : [email protected]
Format settings, CABAC : Yes
Format settings, ReFrames : 4 frames
Codec ID : 27
Duration : 8mn 9s
Bit rate mode : Variable
Bit rate : 8 000 Kbps
Maximum bit rate : 40.0 Mbps
Width : 1 920 pixels
Height : 1 080 pixels
Display aspect ratio : 16:9
Frame rate : 25.000 fps
Color space : YUV
Chroma subsampling : 4:2:0
Bit depth : 8 bits
Scan type : MBAFF
Bits/(Pixel*Frame) : 0.154
Stream size : 457 MiB (91%)
Writing library : x264 core 116 r2074 2641b9e
Encoding settings : cabac=1 / ref=3 / deblock=1:0:0 / analyse=0x1:0x111 / me=hex / subme=6 / psy=1 / psy_rd=1.00:0.00 / mixed_ref=1 / me_range=16 / chroma_me=1 / trellis=1 / 8x8dct=0 / cqm=0 / deadzone=21,11 / fast_pskip=1 / chroma_qp_offset=-2 / threads=6 / sliced_threads=0 / nr=0 / decimate=1 / interlaced=tff / bluray_compat=0 / constrained_intra=0 / bframes=3 / b_pyramid=2 / b_adapt=1 / b_bias=0 / direct=1 / weightb=1 / open_gop=0 / weightp=0 / keyint=250 / keyint_min=25 / scenecut=40 / intra_refresh=0 / rc=2pass / mbtree=0 / bitrate=8000 / ratetol=1.0 / qcomp=0.60 / qpmin=10 / qpmax=51 / qpstep=4 / cplxblur=20.0 / qblur=0.5 / ip_ratio=1.40 / pb_ratio=1.30 / aq=1:1.0
Audio
ID : 4352 (0x1100)
Menu ID : 1 (0x1)
Format : AC-3
Format/Info : Audio Coding 3
Mode extension : CM (complete main)
Codec ID : 129
Duration : 8mn 9s
Bit rate mode : Constant
Bit rate : 384 Kbps
Channel(s) : 6 channels
Channel positions : Front: L C R, Side: L R, LFE
Sampling rate : 48.0 KHz
Bit depth : 16 bits
Compression mode : Lossy
Delay relative to video : 30ms
Stream size : 22.4 MiB (4%)
-        -

_________________
Other forum [Profile] [PM]
Display posts from previous:    
Reply to topic

The time now is: Today 02:26

All times are GMT + 3 Hours



You cannot post new topics in this forum
You cannot reply to topics in this forum
You cannot edit your posts in this forum
You cannot delete your posts in this forum
You cannot vote in polls in this forum
You cannot attach files in this forum
You cannot download files in this forum