Сегодня идет свободное скачивание без начисления Download

(Classic Rock) Ken Hensley - Rare and Timeless - 2018 [FLAC, image +.cue, lossless]

Ответить на тему
 
Автор
Сообщение

sergej644 ®

Пол:

Стаж: 6 лет 1 месяц

Сообщений: 591

Торрент-статистика

Пост 12-Авг-2018 19:47

[Цитировать]

-Ken Hensley - Rare and Timeless--
Год издания: 2018
Страна: England
Жанр: Classic Rock
Продолжительность: 01:10:00-Лейбл издания: BMG Rights Managemen
Страна-выпуска диска: England
Номер по каталогу: BMG CAT156CD-Формат: FLAC
Битрейт аудио: Lossless
Тип рипа: image +.cue
Наличие сканов в содержимом раздачи: да
-

Трэклист


01. Free Me (4:11)
02. Send Me An Angel (4:42)
03. If I Had The Time (5:14)
04. Guilty (2:58)
05. The Last Dance (8:25)
06. Mine (4:29)
07. I Did It All (4:54)
08. I Close My Eyes (4:53)
09. Take & Take (3:44)
10. The Return (5:07)
11. Beyond The Starz (6:59)
12. Fortune (5:18)
13. Lady In Black (5:18)
14. The Longest Night (3:22)
15. Epilogue (0:25)
-

Лог создания рипа

Код:
Exact Audio Copy V1.3 from 2. September 2016
Отчёт EAC об извлечении, выполненном 7. июня 2018, 17:24
Ken Hensley / Rare And Timeless
Дисковод: ASUS    DRW-24B3ST   Adapter: 1  ID: 0
Режим чтения                 : Достоверность
Использование точного потока : Да
Отключение кэша аудио        : Да
Использование указателей C2  : Нет
Коррекция смещения при чтении                     : 6
Способность читать области Lead-in и Lead-out     : Нет
Заполнение пропущенных сэмплов тишиной            : Да
Удаление блоков с тишиной в начале и конце        : Нет
При вычислениях CRC использовались нулевые сэмплы : Да
Интерфейс                                         : Встроенный Win32-интерфейс для Win NT/2000
Выходной формат          : Пользовательский кодировщик
Выбранный битрейт        : 1024 kBit/s
Качество                 : Высокий
Добавление ID3-тега      : Нет
Утилита сжатия           : C:\Program Files (x86)\Exact Audio Copy\Flac\flac.exe
Дополнительные параметры : -V -8 -T "Date=%year%" -T "Genre=%genre%" %source%
TOC извлечённого CD
     Трек |   Старт  | Длительность | Начальный сектор | Конечный сектор
    ---------------------------------------------------------------------
       1  |  0:00.00 |    4:10.71   |           0      |      18820
       2  |  4:10.71 |    4:41.68   |       18821      |      39963
       3  |  8:52.64 |    5:14.25   |       39964      |      63538
       4  | 14:07.14 |    2:57.52   |       63539      |      76865
       5  | 17:04.66 |    8:24.39   |       76866      |     114704
       6  | 25:29.30 |    4:29.18   |      114705      |     134897
       7  | 29:58.48 |    4:53.60   |      134898      |     156932
       8  | 34:52.33 |    4:53.35   |      156933      |     178942
       9  | 39:45.68 |    3:44.25   |      178943      |     195767
      10  | 43:30.18 |    5:06.74   |      195768      |     218791
      11  | 48:37.17 |    6:59.37   |      218792      |     250253
      12  | 55:36.54 |    5:17.61   |      250254      |     274089
      13  | 60:54.40 |    5:18.34   |      274090      |     297973
      14  | 66:12.74 |    3:21.63   |      297974      |     313111
      15  | 69:34.62 |    0:25.36   |      313112      |     315022
Характеристики диапазона извлечения и сообщения об ошибках
Выбранный диапазон
     Имя файла E:\Torrents\Ken Hensley - 2018 - Rare and Timeless\Ken Hensley - Rare And Timeless.wav
     Пиковый уровень 100.0 %
     Скорость извлечения 9.6 X
     Качество диапазона 100.0 %
     CRC теста 633F8618
     CRC копии 633F8618
     Копирование... OK
Ошибок не произошло
AccurateRip: сводка
Трек  1  отсутствует в базе данных
Трек  2  отсутствует в базе данных
Трек  3  отсутствует в базе данных
Трек  4  отсутствует в базе данных
Трек  5  отсутствует в базе данных
Трек  6  отсутствует в базе данных
Трек  7  отсутствует в базе данных
Трек  8  отсутствует в базе данных
Трек  9  отсутствует в базе данных
Трек 10  отсутствует в базе данных
Трек 11  отсутствует в базе данных
Трек 12  отсутствует в базе данных
Трек 13  отсутствует в базе данных
Трек 14  отсутствует в базе данных
Трек 15  отсутствует в базе данных
Ни одного трека нет в базе AccurateRip
Конец отчёта

Индексная карта (non-compilant .cue)

Код:
REM GENRE Rock
REM DATE 2018
REM DISCID D910680F
REM COMMENT "ExactAudioCopy v1.3"
PERFORMER "Ken Hensley"
TITLE "Rare And Timeless"
REM COMPOSER ""
FILE "Ken Hensley - Rare And Timeless.flac" WAVE
  TRACK 01 AUDIO
    TITLE "Free Me"
    PERFORMER "Ken Hensley"
    REM COMPOSER ""
    INDEX 01 00:00:00
  TRACK 02 AUDIO
    TITLE "Send Me An Angel"
    PERFORMER "Ken Hensley"
    REM COMPOSER ""
    INDEX 01 04:10:71
  TRACK 03 AUDIO
    TITLE "If I Had The Time"
    PERFORMER "Ken Hensley"
    REM COMPOSER ""
    INDEX 01 08:52:64
  TRACK 04 AUDIO
    TITLE "Guilty"
    PERFORMER "Ken Hensley"
    REM COMPOSER ""
    INDEX 01 14:07:14
  TRACK 05 AUDIO
    TITLE "The Last Dance"
    PERFORMER "Ken Hensley"
    REM COMPOSER ""
    INDEX 01 17:04:66
  TRACK 06 AUDIO
    TITLE "Mine"
    PERFORMER "Ken Hensley"
    REM COMPOSER ""
    INDEX 01 25:29:30
  TRACK 07 AUDIO
    TITLE "I Did It All"
    PERFORMER "Ken Hensley"
    REM COMPOSER ""
    INDEX 01 29:58:48
  TRACK 08 AUDIO
    TITLE "I Close My Eyes"
    PERFORMER "Ken Hensley"
    REM COMPOSER ""
    INDEX 01 34:52:33
  TRACK 09 AUDIO
    TITLE "Take & Take"
    PERFORMER "Ken Hensley"
    REM COMPOSER ""
    INDEX 01 39:45:68
  TRACK 10 AUDIO
    TITLE "The Return"
    PERFORMER "Ken Hensley"
    REM COMPOSER ""
    INDEX 01 43:30:18
  TRACK 11 AUDIO
    TITLE "Beyond The Starz"
    PERFORMER "Ken Hensley"
    REM COMPOSER ""
    INDEX 01 48:37:17
  TRACK 12 AUDIO
    TITLE "Fortune"
    PERFORMER "Ken Hensley"
    REM COMPOSER ""
    INDEX 01 55:36:54
  TRACK 13 AUDIO
    TITLE "Lady In Black"
    PERFORMER "Ken Hensley"
    REM COMPOSER ""
    INDEX 01 60:54:40
  TRACK 14 AUDIO
    TITLE "The Longest Night"
    PERFORMER "Ken Hensley"
    REM COMPOSER ""
    INDEX 01 66:12:74
  TRACK 15 AUDIO
    TITLE "Epilogue"
    PERFORMER "Ken Hensley"
    REM COMPOSER ""
    INDEX 01 69:34:62
-

для ознакомления:

--

_________________
Вне форума [Профиль] [ЛС]
Похожие темы
Форум Тема Автор Торрент Отв. Посл. сообщение
./templates/default/images/folder_dl.gif Rock (Classic Rock, Blues) Ian Moss (Cold Chisel) - Six Strings (10th Anniversay Edition) - 2015, MP3, 320 kbps Omen
1 | 0

0 | 750

14

2015-06-04 18:45
Omen Последнее
./templates/default/images/folder_dl.gif Rock (Classic Rock) Graham Elks - Dark Fear - 2015, MP3, 320 kbps Omen
0 | 4

0 | 452

6

2015-07-08 06:16
Omen Последнее
./templates/default/images/folder_dl.gif Rock (Classic Rock / Pub Rock) Cold Chisel - The Perfect Crime (Deluxe Edition) - 2015, MP3, 320 kbps Omen
1 | 0

0 | 761

9

2015-10-02 21:00
Omen Последнее
./templates/default/images/folder_dl.gif Rock (Classic Rock / Hard Rock) Joel Hoekstra\'s 13 - Dying To Live (Japanese Edition+Bonus Track) - 2015, MP3, 320 kbps Omen
1 | 0

0 | 1387

8

2015-10-06 06:00
Omen Последнее
./templates/default/images/folder_dl.gif Rock (Classic Rock, Hard Rock, Progressive Rock) [WEB] Martin Turner & Friends (ex-Wishbone Ash) - The Garden Party (Live!) - 2014, FLAC (tracks), lossless Omen
1 | 0

0 | 951

8

2015-12-01 00:03
Omen Последнее
Показать сообщения:    
Ответить на тему

Текущее время: Сегодня 05:06

Часовой пояс: GMT + 3



Вы не можете начинать темы
Вы не можете отвечать на сообщения
Вы не можете редактировать свои сообщения
Вы не можете удалять свои сообщения
Вы не можете голосовать в опросах
Вы не можете прикреплять файлы к сообщениям
Вы не можете скачивать файлы