Today is a free download without charge Download

(Author's Song) Владимир Высоцкий - Концерт в Торонто (2CD, 1979) - 1997 [FLAC, image +.cue, lossless]

Reply to topic
 
Author
Message

sergej644 ®

Gender:

Longevity: 8 years 3 months

Posts: 656

Location: Klaipeda

Торрент-статистика

Post 27-Jan-2019 14:01

[Quote]

-Владимир Высоцкий - Концерт в Торонто (2CD, 1979)--
Год издания: 1997
Страна: USSR
Жанр: Author's Song
Продолжительность: 01:29:43-Лейбл издания: Solyd Records
Страна-выпуска диска: Russia
Номер по каталогу: SLR 0085/86-Формат: FLAC
Битрейт аудио: Lossless
Тип рипа: image +.cue
Наличие сканов в содержимом раздачи: да
-

Трэклист

CD 1 | 00:40:05


01. Вступительное Слово В.Высоцкого (3:15)
02. Песня О Погибшем Лётчике (3:11)
03. Рассказ О Пластинках, Об Авторской Песне (1:51)
04. Случай В Ресторане (1:40)
05. Купола (4:16)
06. В Ленинграде - Городе... (0:49)
07. Зарисовка О Париже , Или Письмо К Другу (1:34)
08. Рассказ О Письмах Слушателей (1:03)
09. История Одной Научной Загадки, Или Почему Аборигены Съели Кука (2:36)
10. Рассказ О Каннибализме (1:02)
11. Ой, Где Был Я Вчера (2:48)
12. Впечатление От Лекции О Международном Положении, Которая Была Прочитана В Бут... (3:32)
13. Дорожная История (2:43)
14. Об Аплодисментах, О Друзьях (1:16)
15. На Смерть Шукшина (0:48)
16. О Друзьях, О Слушателях (1:26)
17. Песня Автозавистника (2:47)
18. Горизонт (3:29)

CD 2 | 00:49:38


01. Комментарий (0:40)
02. Москва - Одесса (3:27)
03. Через 10 Лет Всё Так Же (0:58)
04. Инструкция Перед Поездкой За Рубеж, Или Полчаса В Месткоме (4:15)
05. Про Речку Вачу И Попутчицу Валю (3:28)
06. Диалог У Телевизора (3:32)
07. Конец Охоты На Волков, Или Охота С Вертолетов (Где Вы, Волки) (4:08)
08. Баллада О Детстве, Или Старый Дом (6:06)
09. Поездка В Город (2:49)
10. Случай На Таможне (4:30)
11. Братские Могилы (1:27)
12. Комментарий (3:21)
13. Попурри Из Ранних Песен (5:47)
14. Комментарий (1:01)
15. Чужая Колея (3:09)
16. Комментарий (1:01)
-

Лог создания рипа

CD 1

Код:
Exact Audio Copy V0.99 prebeta 5 from 4. May 2009
Отчёт EAC об извлечении, выполненном 20. декабря 2011, 21:07
Владимир Высоцкий / Концерт В Торонто. Часть 1
Дисковод: MATSHITADVD-RAM UJ890AS   Adapter: 0  ID: 1
Режим чтения                 : Достоверность
Использование точного потока : Да
Отключение кэша аудио        : Да
Использование указателей C2  : Нет
Коррекция смещения при чтении                     : 102
Способность читать области Lead-in и Lead-out     : Нет
Заполнение пропущенных сэмплов тишиной            : Да
Удаление блоков с тишиной в начале и конце        : Нет
При вычислениях CRC использовались нулевые сэмплы : Да
Интерфейс                                         : Встроенный Win32-интерфейс для Win NT/2000
Выходной формат          : Пользовательский кодировщик
Выбранный битрейт        : 768 kBit/s
Качество                 : Высокий
Добавление ID3-тэга      : Нет
Утилита сжатия           : C:\Program Files (x86)\Exact Audio Copy\FLAC\FLAC.EXE
Дополнительные параметры : -6 -V -T "ARTIST=%a" -T "TITLE=%t" -T "ALBUM=%g" -T "DATE=%y" -T "TRACKNUMBER=%n" -T "GENRE=%m" -T "COMMENT=%e" %s -o %d
TOC извлечённого CD
     Трек |   Старт  | Длительность | Начальный сектор | Конечный сектор
    ---------------------------------------------------------------------
       1  |  0:00.03 |    3:15.10   |           3      |      14637
       2  |  3:15.13 |    3:10.60   |       14638      |      28947
       3  |  6:25.73 |    1:50.52   |       28948      |      37249
       4  |  8:16.50 |    1:39.50   |       37250      |      44724
       5  |  9:56.25 |    4:15.50   |       44725      |      63899
       6  | 14:12.00 |    0:49.20   |       63900      |      67594
       7  | 15:01.20 |    1:33.55   |       67595      |      74624
       8  | 16:35.00 |    1:02.48   |       74625      |      79322
       9  | 17:37.48 |    2:36.32   |       79323      |      91054
      10  | 20:14.05 |    1:02.30   |       91055      |      95734
      11  | 21:16.35 |    2:47.73   |       95735      |     108332
      12  | 24:04.33 |    3:31.57   |      108333      |     124214
      13  | 27:36.15 |    2:42.65   |      124215      |     136429
      14  | 30:19.05 |    1:15.38   |      136430      |     142092
      15  | 31:34.43 |    0:47.55   |      142093      |     145672
      16  | 32:22.23 |    1:26.35   |      145673      |     152157
      17  | 33:48.58 |    2:47.37   |      152158      |     164719
      18  | 36:36.20 |    3:29.13   |      164720      |     180407
Характеристики диапазона извлечения и сообщения об ошибках
Выбранный диапазон
     Имя файла D:\MyWorks\Владимир Высоцкий - Концерт В Торонто. Часть 1.wav
     Пиковый уровень 99.0 %
     Качество диапазона 100.0 %
     CRC копии 31D43BF2
     Копирование... OK
Ошибок не произошло
AccurateRip: сводка
Трек  1  нет в базе данных
Трек  2  нет в базе данных
Трек  3  нет в базе данных
Трек  4  нет в базе данных
Трек  5  нет в базе данных
Трек  6  нет в базе данных
Трек  7  нет в базе данных
Трек  8  нет в базе данных
Трек  9  нет в базе данных
Трек 10  нет в базе данных
Трек 11  нет в базе данных
Трек 12  нет в базе данных
Трек 13  нет в базе данных
Трек 14  нет в базе данных
Трек 15  нет в базе данных
Трек 16  нет в базе данных
Трек 17  нет в базе данных
Трек 18  нет в базе данных
Ни одного трека нет в базе AccurateRip
Конец отчёта

CD 2

Код:
Exact Audio Copy V0.99 prebeta 5 from 4. May 2009
Отчёт EAC об извлечении, выполненном 20. декабря 2011, 22:07
Владимир Высоцкий / Концерт В Торонто. Часть 2
Дисковод: MATSHITADVD-RAM UJ890AS   Adapter: 0  ID: 1
Режим чтения                 : Достоверность
Использование точного потока : Да
Отключение кэша аудио        : Да
Использование указателей C2  : Нет
Коррекция смещения при чтении                     : 102
Способность читать области Lead-in и Lead-out     : Нет
Заполнение пропущенных сэмплов тишиной            : Да
Удаление блоков с тишиной в начале и конце        : Нет
При вычислениях CRC использовались нулевые сэмплы : Да
Интерфейс                                         : Встроенный Win32-интерфейс для Win NT/2000
Выходной формат          : Пользовательский кодировщик
Выбранный битрейт        : 768 kBit/s
Качество                 : Высокий
Добавление ID3-тэга      : Нет
Утилита сжатия           : C:\Program Files (x86)\Exact Audio Copy\FLAC\FLAC.EXE
Дополнительные параметры : -6 -V -T "ARTIST=%a" -T "TITLE=%t" -T "ALBUM=%g" -T "DATE=%y" -T "TRACKNUMBER=%n" -T "GENRE=%m" -T "COMMENT=%e" %s -o %d
TOC извлечённого CD
     Трек |   Старт  | Длительность | Начальный сектор | Конечный сектор
    ---------------------------------------------------------------------
       1  |  0:00.02 |    0:39.50   |           2      |       2976
       2  |  0:39.52 |    3:27.20   |        2977      |      18521
       3  |  4:06.72 |    0:57.48   |       18522      |      22844
       4  |  5:04.45 |    4:15.12   |       22845      |      41981
       5  |  9:19.57 |    3:27.58   |       41982      |      57564
       6  | 12:47.40 |    3:32.30   |       57565      |      73494
       7  | 16:19.70 |    4:07.70   |       73495      |      92089
       8  | 20:27.65 |    6:05.50   |       92090      |     119514
       9  | 26:33.40 |    2:48.62   |      119515      |     132176
      10  | 29:22.27 |    4:29.40   |      132177      |     152391
      11  | 33:51.67 |    1:27.20   |      152392      |     158936
      12  | 35:19.12 |    3:21.30   |      158937      |     174041
      13  | 38:40.42 |    5:46.40   |      174042      |     200031
      14  | 44:27.07 |    1:01.35   |      200032      |     204641
      15  | 45:28.42 |    3:08.60   |      204642      |     218801
      16  | 48:37.27 |    1:00.45   |      218802      |     223346
Характеристики диапазона извлечения и сообщения об ошибках
Выбранный диапазон
     Имя файла D:\MyWorks\Владимир Высоцкий - Концерт В Торонто. Часть 2.wav
     Пиковый уровень 99.5 %
     Качество диапазона 99.9 %
     CRC копии 72EDF599
     Копирование... OK
Ошибок не произошло
AccurateRip: сводка
Трек  1  нет в базе данных
Трек  2  нет в базе данных
Трек  3  нет в базе данных
Трек  4  нет в базе данных
Трек  5  нет в базе данных
Трек  6  нет в базе данных
Трек  7  нет в базе данных
Трек  8  нет в базе данных
Трек  9  нет в базе данных
Трек 10  нет в базе данных
Трек 11  нет в базе данных
Трек 12  нет в базе данных
Трек 13  нет в базе данных
Трек 14  нет в базе данных
Трек 15  нет в базе данных
Трек 16  нет в базе данных
Ни одного трека нет в базе AccurateRip
Конец отчёта

Индексная карта (non-compilant .cue)

CD 1

Код:
REM GENRE Chanson
REM DATE 1997
REM DISCID 24096512
REM COMMENT "ExactAudioCopy v0.99pb5"
PERFORMER "Владимир Высоцкий"
TITLE "Концерт В Торонто. Часть 1"
FILE "Владимир Высоцкий - Концерт В Торонто. Часть 1.flac" WAVE
  TRACK 01 AUDIO
    TITLE "Вступительное Слово В.Высоцкого"
    PERFORMER "Владимир Высоцкий"
    INDEX 00 00:00:00
    INDEX 01 00:00:03
  TRACK 02 AUDIO
    TITLE "Песня О Погибшем Лётчике"
    PERFORMER "Владимир Высоцкий"
    INDEX 01 03:15:13
  TRACK 03 AUDIO
    TITLE "Рассказ О Пластинках, Об Авторской Песне"
    PERFORMER "Владимир Высоцкий"
    INDEX 01 06:25:73
  TRACK 04 AUDIO
    TITLE "Случай В Ресторане"
    PERFORMER "Владимир Высоцкий"
    INDEX 01 08:16:50
  TRACK 05 AUDIO
    TITLE "Купола"
    PERFORMER "Владимир Высоцкий"
    INDEX 01 09:56:25
  TRACK 06 AUDIO
    TITLE "В Ленинграде - Городе..."
    PERFORMER "Владимир Высоцкий"
    INDEX 01 14:12:00
  TRACK 07 AUDIO
    TITLE "Зарисовка О Париже , Или Письмо К Другу"
    PERFORMER "Владимир Высоцкий"
    INDEX 01 15:01:20
  TRACK 08 AUDIO
    TITLE "Рассказ О Письмах Слушателей"
    PERFORMER "Владимир Высоцкий"
    INDEX 01 16:35:00
  TRACK 09 AUDIO
    TITLE "История Одной Научной Загадки, Или Почему Аборигены Съели Кука"
    PERFORMER "Владимир Высоцкий"
    INDEX 01 17:37:48
  TRACK 10 AUDIO
    TITLE "Рассказ О Каннибализме"
    PERFORMER "Владимир Высоцкий"
    INDEX 01 20:14:05
  TRACK 11 AUDIO
    TITLE "Ой, Где Был Я Вчера"
    PERFORMER "Владимир Высоцкий"
    INDEX 01 21:16:35
  TRACK 12 AUDIO
    TITLE "Впечатление От Лекции О Международном Положении, Которая Была Прочитана В Бут..."
    PERFORMER "Владимир Высоцкий"
    INDEX 01 24:04:33
  TRACK 13 AUDIO
    TITLE "Дорожная История"
    PERFORMER "Владимир Высоцкий"
    INDEX 01 27:36:15
  TRACK 14 AUDIO
    TITLE "Об Аплодисментах, О Друзьях"
    PERFORMER "Владимир Высоцкий"
    INDEX 01 30:19:05
  TRACK 15 AUDIO
    TITLE "На Смерть Шукшина"
    PERFORMER "Владимир Высоцкий"
    INDEX 01 31:34:43
  TRACK 16 AUDIO
    TITLE "О Друзьях, О Слушателях"
    PERFORMER "Владимир Высоцкий"
    INDEX 01 32:22:23
  TRACK 17 AUDIO
    TITLE "Песня Автозавистника"
    PERFORMER "Владимир Высоцкий"
    INDEX 01 33:48:58
  TRACK 18 AUDIO
    TITLE "Горизонт"
    PERFORMER "Владимир Высоцкий"
    INDEX 01 36:36:20

CD 2

Код:
REM GENRE Chanson
REM DATE 1997
REM DISCID D50BA110
REM COMMENT "ExactAudioCopy v0.99pb5"
PERFORMER "Владимир Высоцкий"
TITLE "Концерт В Торонто. Часть 2"
FILE "Владимир Высоцкий - Концерт В Торонто. Часть 2.flac" WAVE
  TRACK 01 AUDIO
    TITLE "Комментарий"
    PERFORMER "Владимир Высоцкий"
    INDEX 00 00:00:00
    INDEX 01 00:00:02
  TRACK 02 AUDIO
    TITLE "Москва - Одесса"
    PERFORMER "Владимир Высоцкий"
    INDEX 01 00:39:52
  TRACK 03 AUDIO
    TITLE "Через 10 Лет Всё Так Же"
    PERFORMER "Владимир Высоцкий"
    INDEX 01 04:06:72
  TRACK 04 AUDIO
    TITLE "Инструкция Перед Поездкой За Рубеж, Или Полчаса В Месткоме"
    PERFORMER "Владимир Высоцкий"
    INDEX 01 05:04:45
  TRACK 05 AUDIO
    TITLE "Про Речку Вачу И Попутчицу Валю"
    PERFORMER "Владимир Высоцкий"
    INDEX 01 09:19:57
  TRACK 06 AUDIO
    TITLE "Диалог У Телевизора"
    PERFORMER "Владимир Высоцкий"
    INDEX 01 12:47:40
  TRACK 07 AUDIO
    TITLE "Конец Охоты На Волков, Или Охота С Вертолетов (Где Вы, Волки)"
    PERFORMER "Владимир Высоцкий"
    INDEX 01 16:19:70
  TRACK 08 AUDIO
    TITLE "Баллада О Детстве, Или Старый Дом"
    PERFORMER "Владимир Высоцкий"
    INDEX 01 20:27:65
  TRACK 09 AUDIO
    TITLE "Поездка В Город"
    PERFORMER "Владимир Высоцкий"
    INDEX 01 26:33:40
  TRACK 10 AUDIO
    TITLE "Случай На Таможне"
    PERFORMER "Владимир Высоцкий"
    INDEX 01 29:22:27
  TRACK 11 AUDIO
    TITLE "Братские Могилы"
    PERFORMER "Владимир Высоцкий"
    INDEX 01 33:51:67
  TRACK 12 AUDIO
    TITLE "Комментарий"
    PERFORMER "Владимир Высоцкий"
    INDEX 01 35:19:12
  TRACK 13 AUDIO
    TITLE "Попурри Из Ранних Песен"
    PERFORMER "Владимир Высоцкий"
    INDEX 01 38:40:42
  TRACK 14 AUDIO
    TITLE "Комментарий"
    PERFORMER "Владимир Высоцкий"
    INDEX 01 44:27:07
  TRACK 15 AUDIO
    TITLE "Чужая Колея"
    PERFORMER "Владимир Высоцкий"
    INDEX 01 45:28:42
  TRACK 16 AUDIO
    TITLE "Комментарий"
    PERFORMER "Владимир Высоцкий"
    INDEX 01 48:37:27
-

Дополнительная информация об альбоме


Концерт Владимира Высоцкого в Торонто состоялся 12 апреля 1979 года. Фрагменты этого выступления с измененным порядком песен,урезанными комментариями и в некоторых случаях сокращенными песнями,были изданы в 1981 году на долгоиграющей пластинке американской фирмой Kismet Record Co (k 115). Полностью запись концерта издается впервые
--

_________________
У нас все платно: родиться, учиться, жениться, лечиться, умереть.
Бесплатно разрешено только работать.
Other forum [Profile] [PM]
Display posts from previous:    
Reply to topic

The time now is: Today 04:00

All times are GMT + 3 Hours



You cannot post new topics in this forum
You cannot reply to topics in this forum
You cannot edit your posts in this forum
You cannot delete your posts in this forum
You cannot vote in polls in this forum
You cannot attach files in this forum
You cannot download files in this forum