Today is a free download without charge Download

(Alternative Rock) Muse - Simulation Theory (Deluxe Edition) - 2018 [FLAC, image +.cue, lossless]

Reply to topic
 
Author
Message

sergej644 ®

Gender:

Longevity: 8 years 2 months

Posts: 656

Location: Klaipeda

Торрент-статистика

Post 27-Jan-2019 14:28

[Quote]

-Muse - Simulation Theory (Deluxe Edition)--
Год издания: 2018
Страна: UK
Жанр: Alternative Rock
Продолжительность: 01:0017-Лейбл издания: Warner Bros. Records, Helium-3
Страна-выпуска диска: EU
Номер по каталогу: 0190295578848-Формат: FLAC
Битрейт аудио: Lossless
Тип рипа: image +.cue
Наличие сканов в содержимом раздачи: да
-

Трэклист


01. Algorithm (4:06)
02. The Dark Side (3:47)
03. Pressure (3:56)
04. Propaganda (3:01)
05. Break It To Me (3:38)
06. Something Human (3:47)
07. Thought Contagion (3:26)
08. Get Up And Fight (4:05)
09. Blockades (3:51)
10. Dig Down (3:48)
11. The Void (4:45)
12. Algorithm (Alternate Reality Version) (3:32)
13. The Dark Side (Alternate Reality Version) (3:53)
14. Propaganda (Acoustic Version) (3:00)
15. Something Human (Acoustic Version) (3:47)
16. Dig Down (Acoustic Gospel Version) (3:57)
-

Лог создания рипа

Код:
Exact Audio Copy V1.3 from 2. September 2016
EAC extraction logfile from 9. December 2018, 1:47
Muse / Simulation Theory
Used drive  : ASUS    DRW-24B3ST   Adapter: 1  ID: 0
Read mode               : Secure
Utilize accurate stream : Yes
Defeat audio cache      : Yes
Make use of C2 pointers : No
Read offset correction                      : 6
Overread into Lead-In and Lead-Out          : No
Fill up missing offset samples with silence : Yes
Delete leading and trailing silent blocks   : No
Null samples used in CRC calculations       : Yes
Used interface                              : Native Win32 interface for Win NT & 2000
Used output format              : User Defined Encoder
Selected bitrate                : 1024 kBit/s
Quality                         : High
Add ID3 tag                     : No
Command line compressor         : C:\Program Files (x86)\Exact Audio Copy\FLAC\FLAC.EXE
Additional command line options : -V -8 -T "Date=%year%" -T "Genre=%genre%" %source%
TOC of the extracted CD
     Track |   Start  |  Length  | Start sector | End sector
    ---------------------------------------------------------
        1  |  0:00.00 |  4:05.72 |         0    |    18446
        2  |  4:05.72 |  3:47.16 |     18447    |    35487
        3  |  7:53.13 |  3:55.45 |     35488    |    53157
        4  | 11:48.58 |  3:00.38 |     53158    |    66695
        5  | 14:49.21 |  3:37.42 |     66696    |    83012
        6  | 18:26.63 |  3:46.59 |     83013    |   100021
        7  | 22:13.47 |  3:26.08 |    100022    |   115479
        8  | 25:39.55 |  4:04.54 |    115480    |   133833
        9  | 29:44.34 |  3:50.51 |    133834    |   151134
       10  | 33:35.10 |  3:48.11 |    151135    |   168245
       11  | 37:23.21 |  4:44.67 |    168246    |   189612
       12  | 42:08.13 |  3:32.28 |    189613    |   205540
       13  | 45:40.41 |  3:52.55 |    205541    |   222995
       14  | 49:33.21 |  2:59.42 |    222996    |   236462
       15  | 52:32.63 |  3:46.57 |    236463    |   253469
       16  | 56:19.45 |  3:57.25 |    253470    |   271269
Range status and errors
Selected range
     Filename D:\mekong\Muse - Simulation Theory.wav
     Peak level 99.8 %
     Extraction speed 6.4 X
     Range quality 100.0 %
     Test CRC 53AC8D99
     Copy CRC 53AC8D99
     Copy OK
No errors occurred
AccurateRip summary
Track  1  accurately ripped (confidence 5)  [6187DB6B]  (AR v2)
Track  2  accurately ripped (confidence 5)  [3F0C75C8]  (AR v2)
Track  3  accurately ripped (confidence 5)  [49FC023F]  (AR v2)
Track  4  accurately ripped (confidence 5)  [A856A06E]  (AR v2)
Track  5  accurately ripped (confidence 5)  [3DC0DA42]  (AR v2)
Track  6  accurately ripped (confidence 5)  [DDABF365]  (AR v2)
Track  7  accurately ripped (confidence 5)  [96C73853]  (AR v2)
Track  8  accurately ripped (confidence 5)  [F2A578CC]  (AR v2)
Track  9  accurately ripped (confidence 5)  [B08BA489]  (AR v2)
Track 10  accurately ripped (confidence 5)  [DC6D692B]  (AR v2)
Track 11  accurately ripped (confidence 5)  [F4C929B5]  (AR v2)
Track 12  accurately ripped (confidence 5)  [01353E5F]  (AR v2)
Track 13  accurately ripped (confidence 5)  [3D385DDB]  (AR v2)
Track 14  accurately ripped (confidence 5)  [3F303279]  (AR v2)
Track 15  accurately ripped (confidence 5)  [4661D83B]  (AR v2)
Track 16  accurately ripped (confidence 5)  [BDFB3F62]  (AR v2)
All tracks accurately ripped
End of status report
---- CUETools DB Plugin V2.1.6
[CTDB TOCID: 3RY_APdo0XJQXYuSMPhq1jdJXnY-] found
Submit result: 3RY_APdo0XJQXYuSMPhq1jdJXnY- has been confirmed
Track | CTDB Status
  1   | (420/422) Accurately ripped
  2   | (421/422) Accurately ripped
  3   | (421/422) Accurately ripped
  4   | (420/422) Accurately ripped
  5   | (421/422) Accurately ripped
  6   | (420/422) Accurately ripped
  7   | (421/422) Accurately ripped
  8   | (405/422) Accurately ripped, or (10/422) differs in 60 samples @02:15:68, or (2/422) differs in 60 samples @01:17:69-01:17:70
  9   | (420/422) Accurately ripped
10   | (420/422) Accurately ripped
11   | (420/422) Accurately ripped
12   | (421/422) Accurately ripped
13   | (419/422) Accurately ripped
14   | (421/422) Accurately ripped
15   | (421/422) Accurately ripped
16   | (421/422) Accurately ripped

Индексная карта (non-compilant .cue)

Код:
REM GENRE Alternative
REM DATE 2018
REM DISCID D30E2010
REM COMMENT "ExactAudioCopy v1.3"
CATALOG 0190295578848
PERFORMER "Muse"
TITLE "Simulation Theory"
REM COMPOSER ""
FILE "Muse - Simulation Theory.flac" WAVE
  TRACK 01 AUDIO
    TITLE "Algorithm"
    PERFORMER "Muse"
    REM COMPOSER ""
    ISRC GBAHT1800406
    INDEX 01 00:00:00
  TRACK 02 AUDIO
    TITLE "The Dark Side"
    PERFORMER "Muse"
    REM COMPOSER ""
    ISRC GBAHT1800404
    INDEX 01 04:05:72
  TRACK 03 AUDIO
    TITLE "Pressure"
    PERFORMER "Muse"
    REM COMPOSER ""
    ISRC GBAHT1800405
    INDEX 01 07:53:13
  TRACK 04 AUDIO
    TITLE "Propaganda"
    PERFORMER "Muse"
    REM COMPOSER ""
    ISRC GBAHT1800417
    INDEX 01 11:48:58
  TRACK 05 AUDIO
    TITLE "Break It To Me"
    PERFORMER "Muse"
    REM COMPOSER ""
    ISRC GBAHT1800409
    INDEX 01 14:49:21
  TRACK 06 AUDIO
    TITLE "Something Human"
    PERFORMER "Muse"
    REM COMPOSER ""
    ISRC GBAHT1800329
    INDEX 01 18:26:63
  TRACK 07 AUDIO
    TITLE "Thought Contagion"
    PERFORMER "Muse"
    REM COMPOSER ""
    ISRC GBAHT1800045
    INDEX 01 22:13:47
  TRACK 08 AUDIO
    TITLE "Get Up And Fight"
    PERFORMER "Muse"
    REM COMPOSER ""
    ISRC GBAHT1800408
    INDEX 01 25:39:55
  TRACK 09 AUDIO
    TITLE "Blockades"
    PERFORMER "Muse"
    REM COMPOSER ""
    ISRC GBAHT1800410
    INDEX 01 29:44:34
  TRACK 10 AUDIO
    TITLE "Dig Down"
    PERFORMER "Muse"
    REM COMPOSER ""
    ISRC GBAHT1700276
    INDEX 01 33:35:10
  TRACK 11 AUDIO
    TITLE "The Void"
    PERFORMER "Muse"
    REM COMPOSER ""
    ISRC GBAHT1800411
    INDEX 01 37:23:21
  TRACK 12 AUDIO
    TITLE "Algorithm (Alternate Reality Version)"
    PERFORMER "Muse"
    REM COMPOSER ""
    ISRC GBAHT1800415
    INDEX 01 42:08:13
  TRACK 13 AUDIO
    TITLE "The Dark Side (Alternate Reality Version)"
    PERFORMER "Muse"
    REM COMPOSER ""
    ISRC GBAHT1800454
    INDEX 01 45:40:41
  TRACK 14 AUDIO
    TITLE "Propaganda (Acoustic Version)"
    PERFORMER "Muse"
    REM COMPOSER ""
    ISRC GBAHT1800407
    INDEX 01 49:33:21
  TRACK 15 AUDIO
    TITLE "Something Human (Acoustic Version)"
    PERFORMER "Muse"
    REM COMPOSER ""
    ISRC GBAHT1800413
    INDEX 01 52:32:63
  TRACK 16 AUDIO
    TITLE "Dig Down (Acoustic Gospel Version)"
    PERFORMER "Muse"
    REM COMPOSER ""
    ISRC GBAHT1800414
    INDEX 01 56:19:45
-

MUSE - Algorithm (Official Music Video):

--

_________________
У нас все платно: родиться, учиться, жениться, лечиться, умереть.
Бесплатно разрешено только работать.
Other forum [Profile] [PM]
Display posts from previous:    
Reply to topic

The time now is: Today 22:42

All times are GMT + 3 Hours



You cannot post new topics in this forum
You cannot reply to topics in this forum
You cannot edit your posts in this forum
You cannot delete your posts in this forum
You cannot vote in polls in this forum
You cannot attach files in this forum
You cannot download files in this forum