Today is a free download without charge Download

(Electronic, Noise, Experimental, Industrial) F.M. Einheit & Caspar Broetzmann - Merry Christmas [Blast First BFFP 97 CD] - 1994, FLAC (tracks+.cue), lossless

Reply to topic
 
Author
Message

BiteFly ®

Gender:

Longevity: 9 years 1 month

Posts: 2138

Location: Germany-Russia

Торрент-статистика

Post 24-Dec-2011 03:36

[Quote]

F.M. Einheit & Caspar Broetzmann - Merry Christmas-
Каталог # Blast First BFFP 97 CD
Дата релиза: 1994г.
Производитель диска: UK
Формат: CD Album
Жанр: Noise, Experimental, Industrial
Источник рипа: Интернет
Битрейт аудио: lossless
Аудио кодек: FLAC
Тип рипа: tracks+.cue
Продолжительность: 00:52:06
Трэклист:
[02:06] 01. Panzer Kette
[02:28] 02. Nizzary
[04:14] 03. Das 5 Federn Fuckhouse
[04:58] 04. Merry Christmas
[07:30] 05. Kowâ Axis
[04:01] 06. Solingen
[05:16] 07. Park Der Löwen
[04:44] 08. Headhunter Song
[02:13] 09. Stück Frau Das Uhr Spiel
[07:08] 10. Panzer Ketten
[02:53] 11. Untitled
[01:41] 12. Untitled
[02:47] 13. Untitled
Наличие сканов: Да
-

EAC

Код:
EAC extraction logfile from 22. August 2008, 10:57 for CD
Einheit Brotzmann / Merry Christmas
Used drive  : LITE-ON DVDRW SOHW-1693S   Adapter: 0  ID: 0
Read mode   : Secure with NO C2, accurate stream, disable cache
Read offset correction : 12
Overread into Lead-In and Lead-Out : No
Used output format : C:\Program Files\FLAC\flac.exe   (User Defined Encoder)
                     320 kBit/s
                     Additional command line options : -V -8 -T "artist=%a" -T "title=%t" -T "album=%g" -T "date=%y" -T "tracknumber=%n" -T "genre=%m" %s
Other options      :
    Fill up missing offset samples with silence : Yes
    Delete leading and trailing silent blocks : No
    Native Win32 interface for Win NT & 2000
Track  1
     Filename D:\MP3\A-F\F.M. Einheit & Caspar Brotzmann - Merry Christmas\01 - Merry Christmas - Panzer Kette.wav
     Pre-gap length  0:00:02.00
     Peak level 74.1 %
     Track quality 100.0 %
     Test CRC 32D2944E
     Copy CRC 32D2944E
     Copy OK
Track  2
     Filename D:\MP3\A-F\F.M. Einheit & Caspar Brotzmann - Merry Christmas\02 - Merry Christmas - Nizzary.wav
     Peak level 85.0 %
     Track quality 100.0 %
     Test CRC 2DF3734E
     Copy CRC 2DF3734E
     Copy OK
Track  3
     Filename D:\MP3\A-F\F.M. Einheit & Caspar Brotzmann - Merry Christmas\03 - Merry Christmas - Das 5 Federn Fuckhouse.wav
     Peak level 97.6 %
     Track quality 100.0 %
     Test CRC F75CA0AD
     Copy CRC F75CA0AD
     Copy OK
Track  4
     Filename D:\MP3\A-F\F.M. Einheit & Caspar Brotzmann - Merry Christmas\04 - Merry Christmas - Merry Christmas.wav
     Peak level 97.1 %
     Track quality 100.0 %
     Test CRC 5CD35A12
     Copy CRC 5CD35A12
     Copy OK
Track  5
     Filename D:\MP3\A-F\F.M. Einheit & Caspar Brotzmann - Merry Christmas\05 - Merry Christmas - Kowв Axis.wav
     Peak level 97.8 %
     Track quality 100.0 %
     Test CRC 48448B05
     Copy CRC 48448B05
     Copy OK
Track  6
     Filename D:\MP3\A-F\F.M. Einheit & Caspar Brotzmann - Merry Christmas\06 - Merry Christmas - Solingen.wav
     Pre-gap length  0:00:02.60
     Peak level 99.0 %
     Track quality 100.0 %
     Test CRC ADD37F42
     Copy CRC ADD37F42
     Copy OK
Track  7
     Filename D:\MP3\A-F\F.M. Einheit & Caspar Brotzmann - Merry Christmas\07 - Merry Christmas - Park Der Lцwen.wav
     Peak level 87.9 %
     Track quality 100.0 %
     Test CRC 7C682FF8
     Copy CRC 7C682FF8
     Copy OK
Track  8
     Filename D:\MP3\A-F\F.M. Einheit & Caspar Brotzmann - Merry Christmas\08 - Merry Christmas - Headhunter Song.wav
     Peak level 96.4 %
     Track quality 100.0 %
     Test CRC 455456B7
     Copy CRC 455456B7
     Copy OK
Track  9
     Filename D:\MP3\A-F\F.M. Einheit & Caspar Brotzmann - Merry Christmas\09 - Merry Christmas - Stьck Frau Das Uhr Spiel.wav
     Pre-gap length  0:00:05.73
     Peak level 86.1 %
     Track quality 100.0 %
     Test CRC 267AEED8
     Copy CRC 267AEED8
     Copy OK
Track 10
     Filename D:\MP3\A-F\F.M. Einheit & Caspar Brotzmann - Merry Christmas\10 - Merry Christmas - Panzer Ketten.wav
     Peak level 85.0 %
     Track quality 100.0 %
     Test CRC D1F05D1A
     Copy CRC D1F05D1A
     Copy OK
Track 11
     Filename D:\MP3\A-F\F.M. Einheit & Caspar Brotzmann - Merry Christmas\11 - Merry Christmas - Untitled.wav
     Peak level 98.7 %
     Track quality 100.0 %
     Test CRC 44506B9B
     Copy CRC 44506B9B
     Copy OK
Track 12
     Filename D:\MP3\A-F\F.M. Einheit & Caspar Brotzmann - Merry Christmas\12 - Merry Christmas - Untitled.wav
     Peak level 97.3 %
     Track quality 100.0 %
     Test CRC 623AAFC3
     Copy CRC 623AAFC3
     Copy OK
Track 13
     Filename D:\MP3\A-F\F.M. Einheit & Caspar Brotzmann - Merry Christmas\13 - Merry Christmas - Untitled.wav
     Peak level 74.3 %
     Track quality 100.0 %
     Test CRC B8D52959
     Copy CRC B8D52959
     Copy OK
No errors occured
End of status report

Cue

Код:
REM GENRE Avantgarde
REM DATE 1995
REM DISCID B00C360D
REM COMMENT "ExactAudioCopy v0.95b3"
PERFORMER "Einheit Brotzmann"
TITLE "Merry Christmas"
FILE "01 - Merry Christmas - Panzer Kette.wav" WAVE
  TRACK 01 AUDIO
    TITLE "Panzer Kette"
    PERFORMER "Einheit Brotzmann"
    INDEX 01 00:00:00
FILE "02 - Merry Christmas - Nizzary.wav" WAVE
  TRACK 02 AUDIO
    TITLE "Nizzary"
    PERFORMER "Einheit Brotzmann"
    INDEX 01 00:00:00
FILE "03 - Merry Christmas - Das 5 Federn Fuckhouse.wav" WAVE
  TRACK 03 AUDIO
    TITLE "Das 5 Federn Fuckhouse"
    PERFORMER "Einheit Brotzmann"
    INDEX 01 00:00:00
FILE "04 - Merry Christmas - Merry Christmas.wav" WAVE
  TRACK 04 AUDIO
    TITLE "Merry Christmas"
    PERFORMER "Einheit Brotzmann"
    INDEX 01 00:00:00
FILE "05 - Merry Christmas - Kowa Axis.wav" WAVE
  TRACK 05 AUDIO
    TITLE "Kowa Axis"
    PERFORMER "Einheit Brotzmann"
    INDEX 01 00:00:00
  TRACK 06 AUDIO
    TITLE "Solingen"
    PERFORMER "Einheit Brotzmann"
    INDEX 00 07:27:70
FILE "06 - Merry Christmas - Solingen.wav" WAVE
    INDEX 01 00:00:00
FILE "07 - Merry Christmas - Park Der Loewen.wav" WAVE
  TRACK 07 AUDIO
    TITLE "Park Der Loewen "
    PERFORMER "Einheit Brotzmann"
    INDEX 01 00:00:00
FILE "08 - Merry Christmas - Headhunter Song.wav" WAVE
  TRACK 08 AUDIO
    TITLE "Headhunter Song"
    PERFORMER "Einheit Brotzmann"
    INDEX 01 00:00:00
  TRACK 09 AUDIO
    TITLE "Stueck Frau Das Uhr Spiel"
    PERFORMER "Einheit Brotzmann"
    INDEX 00 04:38:50
FILE "09 - Merry Christmas - Stueck Frau Das Uhr Spiel.wav" WAVE
    INDEX 01 00:00:00
FILE "10 - Merry Christmas - Panzer Ketten.wav" WAVE
  TRACK 10 AUDIO
    TITLE "Panzer Ketten"
    PERFORMER "Einheit Brotzmann"
    INDEX 01 00:00:00
FILE "11 - Merry Christmas - Untitled.wav" WAVE
  TRACK 11 AUDIO
    TITLE "Untitled"
    PERFORMER "Einheit Brotzmann"
    INDEX 01 00:00:00
FILE "12 - Merry Christmas - Untitled.wav" WAVE
  TRACK 12 AUDIO
    TITLE "Untitled"
    PERFORMER "Einheit Brotzmann"
    INDEX 01 00:00:00
FILE "13 - Merry Christmas - Untitled.wav" WAVE
  TRACK 13 AUDIO
    TITLE "Untitled"
    PERFORMER "Einheit Brotzmann"
    INDEX 01 00:00:00
-

_________________


Last edited by BiteFly on 2011-12-24 09:01; edited 1 time in total
Other forum [Profile] [PM]
Similar theme
Forum Topic Author Torrent Replies Last Post
./templates/default/images/folder_dl.gif Traditional Electronic, Ambient, Experimental (Electronic, Space Rock) Zodiac / Zodiaks / Зодиак - Дискография - 1980, MP3, 320 kbps Dagel(tm)
1 | 0

0 | 1645

0

2020-08-13 19:37
Dagel(tm) Latest
Display posts from previous:    
Reply to topic

The time now is: Today 14:14

All times are GMT + 3 Hours



You cannot post new topics in this forum
You cannot reply to topics in this forum
You cannot edit your posts in this forum
You cannot delete your posts in this forum
You cannot vote in polls in this forum
You cannot attach files in this forum
You cannot download files in this forum