Today is a free download without charge Download

(Power Metal) Lovebites - Clockwork Immortality (Japanese Ltd. Ed.) - 2018 [FLAC, image +.cue, lossless]

Reply to topic
 
Author
Message

sergej644 ®

Gender:

Longevity: 7 years

Posts: 631

Торрент-статистика

Post 27-Jan-2019 21:00

[Quote]

-Lovebites - Clockwork Immortality (Japanese Ltd. Ed.)--
Год издания: 2018
Страна: Japan
Жанр: Power Metal
Продолжительность: 00:53:28-Лейбл издания: Victor Entertainment
Страна-выпуска диска: Japan
Номер по каталогу: VIZL-1477-Формат: FLAC
Битрейт аудио: Lossless
Тип рипа: image +.cue
Наличие сканов в содержимом раздачи: да
-

Трэклист


01. Addicted (5:25)
02. Pledge Of The Saviour (5:18)
03. Rising (5:45)
04. Empty Daydream (5:16)
05. Mastermind 01 (4:19)
06. M.D.O. (4:16)
07. Journey Of The Otherside (4:47)
08. The Final Collision (5:45)
09. We The United (5:29)
10. Epilogue (7:07)
-

Лог создания рипа

Код:
Exact Audio Copy V1.3 from 2. September 2016
EAC extraction logfile from 28. December 2018, 18:49
Lovebites / Clockwork Immortality (Japan)
Used drive  : ATAPI   iHAS124   F   Adapter: 2  ID: 0
Read mode               : Secure
Utilize accurate stream : Yes
Defeat audio cache      : Yes
Make use of C2 pointers : No
Read offset correction                      : 6
Overread into Lead-In and Lead-Out          : No
Fill up missing offset samples with silence : Yes
Delete leading and trailing silent blocks   : No
Null samples used in CRC calculations       : Yes
Used interface                              : Installed external ASPI interface
Used output format              : User Defined Encoder
Selected bitrate                : 1024 kBit/s
Quality                         : High
Add ID3 tag                     : No
Command line compressor         : C:\Program Files\FLAC\flac.exe
Additional command line options : -V -8 -T "Date=%year%" -T "Genre=%genre%" -T"COMMENT=Ripped by  Ilijan " -8 -V %source%
TOC of the extracted CD
     Track |   Start  |  Length  | Start sector | End sector
    ---------------------------------------------------------
        1  |  0:00.00 |  5:25.21 |         0    |    24395
        2  |  5:25.21 |  5:18.02 |     24396    |    48247
        3  | 10:43.23 |  5:44.74 |     48248    |    74121
        4  | 16:28.22 |  5:16.00 |     74122    |    97821
        5  | 21:44.22 |  4:19.00 |     97822    |   117246
        6  | 26:03.22 |  4:16.00 |    117247    |   136446
        7  | 30:19.22 |  4:46.46 |    136447    |   157942
        8  | 35:05.68 |  5:45.30 |    157943    |   183847
        9  | 40:51.23 |  5:29.02 |    183848    |   208524
       10  | 46:20.25 |  7:07.15 |    208525    |   240564
Range status and errors
Selected range
     Filename D:\Vknish+g.y.m. \Lovebites - Clockwork Immortality (Japan).wav
     Peak level 100.0 %
     Extraction speed 8.1 X
     Range quality 100.0 %
     Test CRC D4B6CBEA
     Copy CRC D4B6CBEA
     Copy OK
No errors occurred
AccurateRip summary
Track  1  not present in database
Track  2  not present in database
Track  3  not present in database
Track  4  not present in database
Track  5  not present in database
Track  6  not present in database
Track  7  not present in database
Track  8  not present in database
Track  9  not present in database
Track 10  not present in database
None of the tracks are present in the AccurateRip database
End of status report

Индексная карта (non-compilant .cue)

Код:
REM GENRE "Power Metal"
REM DATE 2018
REM DISCID 810C870A
REM COMMENT "ExactAudioCopy v1.3"
PERFORMER "Lovebites"
TITLE "Clockwork Immortality (Japan)"
FILE "Lovebites - Clockwork Immortality (Japan).flac" WAVE
  TRACK 01 AUDIO
    TITLE "Addicted"
    PERFORMER "Lovebites"
    INDEX 01 00:00:00
  TRACK 02 AUDIO
    TITLE "Pledge Of The Saviour"
    PERFORMER "Lovebites"
    INDEX 01 05:25:21
  TRACK 03 AUDIO
    TITLE "Rising"
    PERFORMER "Lovebites"
    INDEX 01 10:43:23
  TRACK 04 AUDIO
    TITLE "Empty Daydream"
    PERFORMER "Lovebites"
    INDEX 01 16:28:22
  TRACK 05 AUDIO
    TITLE "Mastermind 01"
    PERFORMER "Lovebites"
    INDEX 00 21:42:71
    INDEX 01 21:44:22
  TRACK 06 AUDIO
    TITLE "M.D.O."
    PERFORMER "Lovebites"
    INDEX 00 26:01:01
    INDEX 01 26:03:22
  TRACK 07 AUDIO
    TITLE "Journey Of The Otherside"
    PERFORMER "Lovebites"
    INDEX 01 30:19:22
  TRACK 08 AUDIO
    TITLE "The Final Collision"
    PERFORMER "Lovebites"
    INDEX 00 35:03:65
    INDEX 01 35:05:68
  TRACK 09 AUDIO
    TITLE "We The United"
    PERFORMER "Lovebites"
    INDEX 01 40:51:23
  TRACK 10 AUDIO
    TITLE "Epilogue"
    PERFORMER "Lovebites"
    INDEX 00 46:16:42
    INDEX 01 46:20:25
-

для ознакомления:

--

_________________
Other forum [Profile] [PM]

XP1971

Торрент-статистика

Post 27-Jan-2019 23:14 (after 2 hours 14 minutes)

[Quote]

Послушал о посмотрел на ссылке на ютуб, понравились дочки самураев, думаю, как это перевести в формат МП3, чтобы (ну да, я древний как мамонт и музыка у меня в авто тоже ;-) ) записать на диск в машину
 

sergej644 ®

Gender:

Longevity: 7 years

Posts: 631

Торрент-статистика

Post 28-Jan-2019 01:10 (after 1 hour 55 minutes)

[Quote]

XP1971 писал(а):
Послушал о посмотрел на ссылке на ютуб, понравились дочки самураев, думаю, как это перевести в формат МП3, чтобы (ну да, я древний как мамонт и музыка у меня в авто тоже ;-) ) записать на диск в машину
спишемся завтра. Все очень легко делается. Сейчас спать....
KXP1971 wrote:

ок, спс)

_________________
Other forum [Profile] [PM]
Similar theme
Forum Topic Author Torrent Replies Last Post
./templates/default/images/folder_dl.gif Metal (Power Metal) Emerald Sun - Collection - 2007-2015 (3 CD) MP3, 320 kbps Omen
1 | 0

0 | 978

7

2015-09-23 21:00
Omen Latest
Display posts from previous:    
Reply to topic

The time now is: Today 08:54

All times are GMT + 3 Hours



You cannot post new topics in this forum
You cannot reply to topics in this forum
You cannot edit your posts in this forum
You cannot delete your posts in this forum
You cannot vote in polls in this forum
You cannot attach files in this forum
You cannot download files in this forum