Today is a free download without charge Download

Плюс один / Plus One (Джефф Чан, Эндрю Раймер) [2019, драма, мелодрама, комедия, BDRip-AVC ] [DUB] [iTunes]

Reply to topic
 
Author
Message

Орлов Владимир ®

Gender:

Longevity: 1 month 11 days

Posts: 109

Location: Россия , Долгопрудный, Моск.обл

Торрент-статистика

Post 11-Sep-2019 16:58

[Quote]

--Плюс один / Plus One [2019, драма, мелодрама, комедия, BDRip-AVC] [DUB] [iTunes]-- Информация о фильме
Год выпуска: 2019
Жанр: драма, мелодрама, комедия
Страна: США
Режиссёр: Джефф Чан, Эндрю Раймер
Перевод: Дублированный (iTunes), Профессиональный многоголосый (HDRezka Studio)
Субтитры: русские (форс. вшитые)
Продолжительность: 01:38:33-- В ролях: Майя Эрскин, Джек Куэйд, Эд Бегли мл., Алекс Анфанджер, Кирстен Армстронг, Дженнифер Бартельс, Джон Басс, Джо Бэйз, Эмма Белл, Бек Беннетт-- Описание: Лето - пора свадеб. Закоренелый холостяк Бен и его подруга Элис, которая только что рассталась со своим парнем, приглашены сразу на десять свадеб. Чтобы не искать плюс один, ребята решают притвориться влюбленной парой. Удастся ли им устоять перед магией секса вокруг и остаться друзьями?-- --Файлы
Качество:BDRip-AVC
Формат: MKV
Видео: MPEG-4 AVC , 1024x430 (2.40:1), 23,976 fps, x264 ~1 809 kbps avg, 0.171 bit/pixel
Аудио: 48 kHz, AC3 Dolby Digital, 3/2 (L,C,R,l,r) + LFE ch, ~256.00 kbps avg | RUS (iTunes)
Аудио 2: 48 kHz, AC3 Dolby Digital, 2/0 (L,R) ch, ~192.00 kbps avg | RUS (HDRezka Studio)
Аудио 3: 48 kHz, AC3 Dolby Digital, 2/0 (L,R) ch, ~256.00 kbps avg | ENG
--

Тех.данные видеофайла

Общее
Уникальный идентификатор : 191402406915293397501441369470430814646 (0x8FFEC33FB0DC40B54510F272B58F21B6)
Полное имя : F:\OlLanDGroup\Plus.One.2019.BDRip(AVC).OllanDGroup.mkv
Формат : Matroska
Версия формата : Version 4 / Version 2
Размер файла : 1,82 Гбайт
Продолжительность : 1 ч. 38 м.
Общий поток : 2643 Кбит/сек
Название фильма : Plus.One.2019 #TorpedoUK#
Дата кодирования : UTC 2019-09-11 12:53:51
Программа кодирования : mkvmerge v29.0.0 ('Like It Or Not') 64-bit
Библиотека кодирования : libebml v1.3.6 + libmatroska v1.4.9
Видео
Идентификатор : 1
Формат : AVC
Формат/Информация : Advanced Video Codec
Профиль формата : [email protected]
Параметр CABAC формата : Да
Параметр ReFrames формата : 10 кадров
Идентификатор кодека : V_MPEG4/ISO/AVC
Продолжительность : 1 ч. 38 м.
Битрейт : 1809 Кбит/сек
Ширина : 1024 пикселя
Высота : 430 пикселей
Соотношение сторон : 2,40:1
Режим частоты кадров : Постоянный
Частота кадров : 23,976 (24000/1001) кадра/сек
Цветовое пространство : YUV
Субдискретизация насыщенности : 4:2:0
Битовая глубина : 8 бит
Тип развёртки : Прогрессивная
Бит/(Пиксели*Кадры) : 0.171
Размер потока : 1,24 Гбайт (68%)
Библиотека кодирования : x264 core 146 r2538 121396c
Настройки программы : cabac=1 / ref=10 / deblock=1:-3:-3 / analyse=0x3:0x113 / me=umh / subme=11 / psy=1 / psy_rd=0.97:0.05 / mixed_ref=1 / me_range=48 / chroma_me=1 / trellis=2 / 8x8dct=1 / cqm=0 / deadzone=21,11 / fast_pskip=1 / chroma_qp_offset=-3 / threads=6 / lookahead_threads=1 / sliced_threads=0 / nr=0 / decimate=1 / interlaced=0 / bluray_compat=0 / constrained_intra=0 / bframes=11 / b_pyramid=2 / b_adapt=2 / b_bias=0 / direct=3 / weightb=1 / open_gop=0 / weightp=2 / keyint=240 / keyint_min=23 / scenecut=40 / intra_refresh=0 / rc_lookahead=40 / rc=2pass / mbtree=0 / bitrate=1809 / ratetol=1.0 / qcomp=0.60 / qpmin=0 / qpmax=69 / qpstep=4 / cplxblur=20.0 / qblur=0.5 / vbv_maxrate=50000 / vbv_bufsize=62500 / nal_hrd=none / filler=0 / ip_ratio=1.40 / pb_ratio=1.30 / aq=1:1.00
Язык : English
Default : Да
Forced : Нет
Аудио #1
Идентификатор : 2
Формат : AC-3
Формат/Информация : Audio Coding 3
Расширение режима : CM (complete main)
Параметр Endianness формата : Big
Идентификатор кодека : A_AC3
Продолжительность : 1 ч. 38 м.
Вид битрейта : Постоянный
Битрейт : 384 Кбит/сек
Каналы : 6 каналов
Расположение каналов : Front: L C R, Side: L R, LFE
Частота : 48,0 КГц
Частота кадров : 31,250 кадров/сек (1536 spf)
Битовая глубина : 16 бит
Метод сжатия : С потерями
Размер потока : 271 Мбайт (15%)
Заголовок : DUB [iTunes]
Язык : Russian
Default : Да
Forced : Нет
Аудио #2
Идентификатор : 3
Формат : AC-3
Формат/Информация : Audio Coding 3
Расширение режима : CM (complete main)
Параметр Endianness формата : Big
Идентификатор кодека : A_AC3
Продолжительность : 1 ч. 38 м.
Вид битрейта : Постоянный
Битрейт : 192 Кбит/сек
Каналы : 2 канала
Расположение каналов : Front: L R
Частота : 48,0 КГц
Частота кадров : 31,250 кадров/сек (1536 spf)
Битовая глубина : 16 бит
Метод сжатия : С потерями
Размер потока : 135 Мбайт (7%)
Заголовок : MVO [HDRezka Studio]
Язык : Russian
Default : Нет
Forced : Нет
Аудио #3
Идентификатор : 4
Формат : AC-3
Формат/Информация : Audio Coding 3
Расширение режима : CM (complete main)
Параметр Endianness формата : Big
Идентификатор кодека : A_AC3
Продолжительность : 1 ч. 38 м.
Вид битрейта : Постоянный
Битрейт : 256 Кбит/сек
Каналы : 2 канала
Расположение каналов : Front: L R
Частота : 48,0 КГц
Частота кадров : 31,250 кадров/сек (1536 spf)
Битовая глубина : 16 бит
Метод сжатия : С потерями
Размер потока : 180 Мбайт (10%)
Заголовок : [Original]
Язык : English
Default : Нет
Forced : Нет
Текст #1
Идентификатор : 5
Формат : UTF-8
Идентификатор кодека : S_TEXT/UTF8
Идентификатор кодека/Информация : UTF-8 Plain Text
Продолжительность : 1 ч. 14 м.
Битрейт : 1 бит/сек
Count of elements : 17
Размер потока : 994 байт (0%)
Заголовок : Forced
Язык : Russian
Default : Да
Forced : Нет
Текст #2
Идентификатор : 6
Формат : UTF-8
Идентификатор кодека : S_TEXT/UTF8
Идентификатор кодека/Информация : UTF-8 Plain Text
Продолжительность : 1 ч. 34 м.
Битрейт : 142 бит/сек
Count of elements : 2078
Размер потока : 98,9 Кбайт (0%)
Заголовок : Full
Язык : Russian
Default : Нет
Forced : Нет
Текст #3
Идентификатор : 7
Формат : UTF-8
Идентификатор кодека : S_TEXT/UTF8
Идентификатор кодека/Информация : UTF-8 Plain Text
Продолжительность : 1 ч. 36 м.
Битрейт : 90 бит/сек
Count of elements : 2179
Размер потока : 64,4 Кбайт (0%)
Заголовок : Full
Язык : English
Default : Нет
Forced : Нет
Текст #4
Идентификатор : 8
Формат : UTF-8
Идентификатор кодека : S_TEXT/UTF8
Идентификатор кодека/Информация : UTF-8 Plain Text
Продолжительность : 1 ч. 37 м.
Битрейт : 97 бит/сек
Count of elements : 2322
Размер потока : 69,1 Кбайт (0%)
Заголовок : SDH
Язык : English
Default : Нет
Forced : Нет
Меню
00:00:00.000 : :Chapter 01
00:07:10.263 : :Chapter 02
00:14:02.424 : :Chapter 03
00:24:10.323 : :Chapter 04
00:32:50.468 : :Chapter 05
00:50:10.298 : :Chapter 06
01:17:48.455 : :Chapter 07
01:34:42.009 : :Chapter 08
01:38:31.655 : :Chapter 09

Скриншоты

           

_________________

Other forum [Profile] [PM]
Display posts from previous:    
Reply to topic

The time now is: Today 20:21

All times are GMT + 3 Hours



You cannot post new topics in this forum
You cannot reply to topics in this forum
You cannot edit your posts in this forum
You cannot delete your posts in this forum
You cannot vote in polls in this forum
You cannot attach files in this forum
You cannot download files in this forum