Today is a free download without charge Download

7 социопатов / 7 raons per fugir (Герард Квинто, Эстеве Солер, Дэвид Торрас) [2019, Комедия, WEB-DLRip-AVC] [MVO] [iTunes]

Reply to topic
 
Author
Message

Орлов Владимир ®

Gender:

Longevity: 1 month 11 days

Posts: 109

Location: Россия , Долгопрудный, Моск.обл

Торрент-статистика

Post 12-Sep-2019 18:25

[Quote]

--7 социопатов / 7 raons per fugir (Герард Квинто, Эстеве Солер, Дэвид Торрас) [2019, Комедия, WEB-DLRip-AVC] [MVO] [iTunes]-- Информация о фильме
Название: 7 социопатов
Оригинальное название: 7 raons per fugir
Год выхода: 2019
Жанр: комедия
Режиссёр: Герард Квинто, Эстеве Солер, Дэвид Торрас--В ролях: Эмма Суарес, Серхи Лопес, Лола Дуэньяс, Давид Вердагер, Ален Эрнандес, Франсеск Орелья, Алекс Брендемюль, Нурия Гаго, Маноло Соло, Айна Клотет--О фильме: Жизнь сталкивает нас с ними каждый день. Неприятный сосед, коллега на работе, подруга, выходящая замуж, безумная семейка на улице, старый знакомый или хитрый продавец. И никто не знает, о чем же они думают на самом деле. Может им просто хочется вас убить? Семь историй, в которых чёрный юмор соседствует с кошмаром, а смех превращается в крики ужаса.-- --Страна: Испания
Производство: Compacto, No Hay Banda, Producciones del Interior AIE
Продолжительность: 01:18:14
Перевод: Профессиональный (многоголосый закадровый) | iTunes--Файл
Формат: MKV
Видео кодек: MPEG-4 AVC
Аудио кодек: AC3
Видео: 1024x458 (2.25:1), 24,000 fps, x264 ~2 135 kbps avg, 0.190 bit/pixel
Аудио : 48 kHz, AC3 Dolby Digital, 3/2 (L,C,R,l,r) + LFE ch, ~384.00 kbps avg | RUS (iTunes)
Субтитры: Нет--

Тех.данные видеофайла

Общее
Уникальный идентификатор : 103531664478548223207258216572849830647 (0x4DE37928F4100E4AA0BB8465F7113AF7)
Полное имя : F:OlLanDGroup7.Raons.Per.Fugir.2019.WEB-DLRip(AVC).OllanDGroup.mkv
Формат : Matroska
Версия формата : Version 4 / Version 2
Размер файла : 1,38 Гбайт
Продолжительность : 1 ч. 18 м.
Общий поток : 2518 Кбит/сек
Название фильма : 7 raons per fugir 2019 #TorpedoUK#
Дата кодирования : UTC 2019-09-12 14:36:20
Программа кодирования : mkvmerge v29.0.0 ('Like It Or Not') 64-bit
Библиотека кодирования : libebml v1.3.6 + libmatroska v1.4.9
Видео
Идентификатор : 1
Формат : AVC
Формат/Информация : Advanced Video Codec
Профиль формата : [email protected]
Параметр CABAC формата : Да
Параметр ReFrames формата : 10 кадров
Идентификатор кодека : V_MPEG4/ISO/AVC
Продолжительность : 1 ч. 18 м.
Битрейт : 2135 Кбит/сек
Ширина : 1024 пикселя
Высота : 458 пикселей
Соотношение сторон : 2,25:1
Режим частоты кадров : Постоянный
Частота кадров : 24,000 кадра/сек
Цветовое пространство : YUV
Субдискретизация насыщенности : 4:2:0
Битовая глубина : 8 бит
Тип развёртки : Прогрессивная
Бит/(Пиксели*Кадры) : 0.190
Размер потока : 1,17 Гбайт (85%)
Библиотека кодирования : x264 core 146 r2538 121396c
Настройки программы : cabac=1 / ref=10 / deblock=1:-3:-3 / analyse=0x3:0x113 / me=umh / subme=10 / psy=1 / psy_rd=0.97:0.05 / mixed_ref=1 / me_range=48 / chroma_me=1 / trellis=2 / 8x8dct=1 / cqm=0 / deadzone=21,11 / fast_pskip=1 / chroma_qp_offset=-6 / threads=6 / lookahead_threads=1 / sliced_threads=0 / nr=0 / decimate=1 / interlaced=0 / bluray_compat=0 / constrained_intra=0 / bframes=11 / b_pyramid=2 / b_adapt=2 / b_bias=0 / direct=3 / weightb=1 / open_gop=0 / weightp=2 / keyint=240 / keyint_min=24 / scenecut=40 / intra_refresh=0 / rc_lookahead=40 / rc=2pass / mbtree=0 / bitrate=2135 / ratetol=1.0 / qcomp=0.60 / qpmin=0 / qpmax=69 / qpstep=4 / cplxblur=20.0 / qblur=0.5 / vbv_maxrate=50000 / vbv_bufsize=62500 / nal_hrd=none / filler=0 / ip_ratio=1.40 / pb_ratio=1.30 / aq=1:1.00
Язык : English
Default : Да
Forced : Нет
Аудио
Идентификатор : 2
Формат : AC-3
Формат/Информация : Audio Coding 3
Расширение режима : CM (complete main)
Параметр Endianness формата : Big
Идентификатор кодека : A_AC3
Продолжительность : 1 ч. 18 м.
Вид битрейта : Постоянный
Битрейт : 384 Кбит/сек
Каналы : 6 каналов
Расположение каналов : Front: L C R, Side: L R, LFE
Частота : 48,0 КГц
Частота кадров : 31,250 кадров/сек (1536 spf)
Битовая глубина : 16 бит
Метод сжатия : С потерями
Размер потока : 215 Мбайт (15%)
Заголовок : iTunes
Язык : Russian
Default : Да
Forced : Да
Меню
00:00:00.000 : en:Глава 1
00:10:06.250 : en:Глава 2
00:17:36.541 : en:Глава 3
00:22:00.791 : en:Глава 4
00:29:43.541 : en:Глава 5
00:37:56.957 : en:Глава 6
00:46:21.415 : en:Глава 7
00:54:41.456 : en:Глава 8
01:04:08.997 : en:Глава 9
01:11:47.413 : en:Глава 10

Скриншоты

           

_________________

Other forum [Profile] [PM]
Display posts from previous:    
Reply to topic

The time now is: Today 20:22

All times are GMT + 3 Hours



You cannot post new topics in this forum
You cannot reply to topics in this forum
You cannot edit your posts in this forum
You cannot delete your posts in this forum
You cannot vote in polls in this forum
You cannot attach files in this forum
You cannot download files in this forum