Today is a free download without charge Download

Тёмный кристалл: Эпоха сопротивления / The Dark Crystal: Age of Resis (Сезон 1 , Серия 1-10 из 10) (Луи Летерье) [2019, Фэнтези, приключения, Мультсериал,WEB-DLRip 1080p] [Пифагор]

Reply to topic
 
Author
Message

Орлов Владимир ®

Gender:

Longevity: 1 month 7 days

Posts: 109

Location: Россия , Долгопрудный, Моск.обл

Торрент-статистика

Post 14-Sep-2019 23:56

[Quote]

--Тёмный кристалл: Эпоха сопротивления / The Dark Crystal: Age of Resis-- Информация о сериале
Название: Тёмный кристалл: Эпоха сопротивления
Оригинальное название: The Dark Crystal: Age of Resistance
Год выхода: 2019
Жанр: Фэнтези, приключения
Страна: Великобритания, США
Перевод: Дублированный | Пифагор по заказу Netflix
Продолжительность: 10x ~ 50 мин
Режиссер: Луи Летерье--В ролях: Аквафина, Катрина Балф, Хелена Бонем Картер, Дэйв Чэпман, Чарли Кондо, Тарон Эгертон, Натали Эммануэль, Аня Тейлор-Джой и др.--О сериале: Гелфлинги Райан, Бриа и Дит выясняют, что зловещие скексисы повредили волшебный кристалл, подпитывающий жизнь в мире. Именно благодаря им начинается восстание, способное уничтожить жестоких захватчиков.-- --Файл
Качество: WEBRip 1080p | The.Dark.Crystal.Age.Of.Resistance.S01E01.iNTERNAL.1080p.WEB.X264-AMRAP
Видео: MPEG-4 AVC, 1920x1080, ~5620 kbps, 23,976 fps
Звук#1: русский, E-AC3, 5.1 ch, 48 kHz, 640 kbps
Звук#2: английский, E-AC3, 5.1 ch, 48 kHz, 768 kbps
Субтитры: русские (форс., полные), английские (SDH)
--

Тех.данные видеофайла

Общее
Уникальный идентификатор : 226688040725374507460033318131445552534 (0xAA8A8750267CF81682F0A39AE9F45596)
Полное имя : G:Torrent2TheDarkCrystalAgeofResistanceS01TheDarkCrystalAgeofResistanceS01x01.mkv
Формат : Matroska
Версия формата : Version 4 / Version 2
Размер файла : 2,95 Гбайт
Продолжительность : 1 ч. 1 м.
Режим общего битрейта : Переменный
Общий поток : 6917 Кбит/сек
Дата кодирования : UTC 2019-08-30 09:38:01
Программа кодирования : mkvmerge v9.5.0 ('Quiet Fire') 64bit
Библиотека кодирования : libebml v1.3.4 + libmatroska v1.4.5
Видео
Идентификатор : 1
Формат : AVC
Формат/Информация : Advanced Video Codec
Профиль формата : [email protected]
Настройки формата : CABAC / 3 Ref Frames
Параметр CABAC формата : Да
Параметр RefFrames формата : 3 кадра
Идентификатор кодека : V_MPEG4/ISO/AVC
Продолжительность : 1 ч. 1 м.
Вид битрейта : Переменный
Битрейт : 5620 Кбит/сек
Максимальный битрейт : 8430 Кбит/сек
Ширина : 1920 пикселей
Высота : 1080 пикселей
Соотношение сторон : 16:9
Режим частоты кадров : Постоянный
Частота кадров : 23,976 (24000/1001) кадра/сек
Цветовое пространство : YUV
Субдискретизация насыщенности : 4:2:0
Битовая глубина : 8 бит
Тип развёртки : Прогрессивная
Бит/(Пиксели*Кадры) : 0.113
Размер потока : 2,35 Гбайт (80%)
Библиотека кодирования : x264 core 148 r2715 7e75228
Настройки программы : cabac=1 / ref=3 / deblock=1:0:0 / analyse=0x1:0x111 / me=umh / subme=10 / psy=1 / psy_rd=1.00:0.00 / mixed_ref=1 / me_range=24 / chroma_me=1 / trellis=2 / 8x8dct=0 / cqm=0 / deadzone=21,11 / fast_pskip=1 / chroma_qp_offset=-2 / threads=8 / lookahead_threads=1 / sliced_threads=0 / nr=0 / decimate=1 / interlaced=0 / bluray_compat=0 / stitchable=1 / constrained_intra=0 / bframes=2 / b_pyramid=0 / b_adapt=2 / b_bias=0 / direct=3 / weightb=1 / open_gop=0 / weightp=2 / keyint=250 / keyint_min=23 / scenecut=0 / intra_refresh=0 / rc_lookahead=48 / rc=2pass / mbtree=1 / bitrate=5620 / ratetol=1.0 / qcomp=0.50 / qpmin=6 / qpmax=51 / qpstep=4 / cplxblur=20.0 / qblur=0.5 / vbv_maxrate=8430 / vbv_bufsize=11240 / nal_hrd=vbr / filler=0 / ip_ratio=1.40 / aq=1:1.00
Язык : English
Default : Да
Forced : Нет
Аудио #1
Идентификатор : 2
Формат : E-AC-3
Формат/Информация : Enhanced Audio Coding 3
Параметр Endianness формата : Big
Идентификатор кодека : A_EAC3
Продолжительность : 1 ч. 1 м.
Вид битрейта : Постоянный
Битрейт : 640 Кбит/сек
Каналы : 6 каналов
Расположение каналов : Front: L C R, Side: L R, LFE
Частота : 48,0 КГц
Частота кадров : 187,500 кадров/сек (256 SPF)
Метод сжатия : С потерями
Размер потока : 280 Мбайт (9%)
Заголовок : rus
Язык : Russian
Default : Да
Forced : Нет
Аудио #2
Идентификатор : 3
Формат : E-AC-3
Формат/Информация : Enhanced Audio Coding 3
Профиль формата : E-AC-3+Atmos / E-AC-3
Параметр Endianness формата : Big
Идентификатор кодека : A_EAC3
Продолжительность : 1 ч. 1 м.
Вид битрейта : Постоянный
Битрейт : 768 Кбит/сек
Каналы : 15 objects / 6 каналов
Расположение каналов : 15 objects / Front: L C R, Side: L R, LFE
Частота : 48,0 КГц
Частота кадров : 187,500 кадров/сек (256 SPF)
Метод сжатия : С потерями
Размер потока : 336 Мбайт (11%)
Заголовок : eng
Язык : English
Default : Нет
Forced : Нет
Текст #1
Идентификатор : 4
Формат : UTF-8
Идентификатор кодека : S_TEXT/UTF8
Идентификатор кодека/Информация : UTF-8 Plain Text
Продолжительность : 2 м. 53 с.
Битрейт : 3 бит/сек
ElementCount : 2
Размер потока : 68,0 байт (0%)
Заголовок : rusForced
Язык : Russian
Default : Да
Forced : Да
Текст #2
Идентификатор : 5
Формат : UTF-8
Идентификатор кодека : S_TEXT/UTF8
Идентификатор кодека/Информация : UTF-8 Plain Text
Продолжительность : 59 м. 42 с.
Битрейт : 74 бит/сек
ElementCount : 746
Размер потока : 32,5 Кбайт (0%)
Заголовок : rusFull
Язык : Russian
Default : Нет
Forced : Нет
Текст #3
Идентификатор : 6
Формат : UTF-8
Идентификатор кодека : S_TEXT/UTF8
Идентификатор кодека/Информация : UTF-8 Plain Text
Продолжительность : 58 м. 27 с.
Битрейт : 68 бит/сек
ElementCount : 1049
Размер потока : 29,2 Кбайт (0%)
Заголовок : engSDH
Язык : English
Default : Нет
Forced : Нет

Скриншоты

                   

_________________

Other forum [Profile] [PM]
Display posts from previous:    
Reply to topic

The time now is: Today 06:35

All times are GMT + 3 Hours



You cannot post new topics in this forum
You cannot reply to topics in this forum
You cannot edit your posts in this forum
You cannot delete your posts in this forum
You cannot vote in polls in this forum
You cannot attach files in this forum
You cannot download files in this forum