Today is a free download without charge Download

Детские игры / Child's Play (Ларс Клевберг) [2019, Ужасы, WEB-DLRip-AVC] [DUB] [iTunes]

Reply to topic
 
Author
Message

Орлов Владимир ®

Gender:

Longevity: 1 month 11 days

Posts: 109

Location: Россия , Долгопрудный, Моск.обл

Торрент-статистика

Post 15-Sep-2019 01:00

[Quote]

--Детские игры / Child's Play (Ларс Клевберг) [2019, Ужасы, WEB-DLRip-AVC] [DUB] [iTunes]-- Информация о фильме
Название: Детские игры
Оригинальное название: Child's Play
Год выпуска: 2019
Жанр: Ужасы
Режиссер: Ларс Клевберг--В ролях: Гэбриел Бейтман, Обри Плаза, Марк Хэмилл, Брайан Тайри Генри, Тим Мэтисон, Дэвид Льюис, Ти Консильо, Марлон Казади, Беатрис Китсос, Ханна Дрю, Трент Редекоп, Эмбер Тейлор, Карлис Бёрк, Николь Энтони, Джонсон Фэн, Кристин Йорк, Миа Белла, Амро Майзуб, Вину Сандху, Оливия Пун, Кеннет Тайнен--О фильме:
Карэн со своим тринадцатилетним сыном Энди недавно переехали в другой город. Мальчику довольно сложно обзавестись компанией друзей из-за своей природной стеснительности. Мама видит, что сын находится постоянно в одиночестве и принимает решение купить ему куклу. Карэн надеется, что ее мальчику станет проще заводить себе друзей. Куклу называют Чаки. Но внезапно Энди замечает, что игрушка странно себя ведет...-- --Страна: Франция, Канада, США
Студия: Orion Pictures, BRON Studios, Bron Creative
Продолжительность: 01:29:59
Перевод: Дублированный iTunes--Файл
Формат: MKV
Качество: WEB-DLRip-AVC
Видео: MPEG-4 AVC, 792x336, - 1081 Кбит/с
Аудио: AAC-HE, 2 ch, - 76 Кбит/с
Субтитры: Русские (форсированные)--

Тех.данные видеофайла

Общее
Уникальный идентификатор: 63088884996642588421220400890318002497 (0x2F767A2ED86A5567D280738828899941)
Полное имя: D:MOVIESChilds.Play.2019.WEB-DLRip-AVC.ExKinoRay.mkv
Формат: Matroska
Версия формата: Version 4 / Version 2
Размер файла: 745 Мбайт
Продолжительность: 1 ч. 29 м.
Общий поток: 1157 Кбит/сек
Название фильма: Childs Play 2019 from селезень
Дата кодирования: UTC 2019-09-14 20:28:48
Программа кодирования: mkvmerge v35.0.0 ('All The Love In The World') 64-bit
Библиотека кодирования: libebml v1.3.9 + libmatroska v1.5.2
Видео
Идентификатор: 1
Формат: AVC
Формат/Информация: Advanced Video Codec
Профиль формата: [email protected]
Параметр CABAC формата: Да
Параметр RefFrames формата: 12 кадров
Идентификатор кодека: V_MPEG4/ISO/AVC
Продолжительность: 1 ч. 29 м.
Битрейт: 1081 Кбит/сек
Ширина: 792 пикселя
Высота: 336 пикселей
Соотношение сторон: 2,35:1
Режим частоты кадров: Постоянный
Частота кадров: 23,976 (24000/1001) кадра/сек
Цветовое пространство: YUV
Субдискретизация насыщенности: 4:2:0
Битовая глубина: 8 бит
Тип развёртки: Прогрессивная
Бит/(Пиксели*Кадры): 0.169
Размер потока: 695 Мбайт (93%)
Библиотека кодирования: x264 core 152 r2851kMod ba24899
Настройки программы: cabac=1 / ref=12 / deblock=1:-3:-3 / analyse=0x3:0x133 / me=umh / subme=10 / psy=1 / fade_compensate=0.00 / psy_rd=1.00:0.12 / mixed_ref=1 / me_range=32 / chroma_me=1 / trellis=2 / 8x8dct=1 / cqm=0 / deadzone=21,11 / fast_pskip=0 / chroma_qp_offset=-3 / threads=6 / lookahead_threads=1 / sliced_threads=0 / nr=0 / decimate=0 / interlaced=0 / bluray_compat=0 / constrained_intra=0 / bframes=12 / b_pyramid=2 / b_adapt=2 / b_bias=0 / direct=3 / weightb=1 / open_gop=0 / weightp=2 / keyint=240 / keyint_min=23 / scenecut=40 / intra_refresh=0 / rc_lookahead=40 / rc=2pass / mbtree=1 / bitrate=1081 / ratetol=1.0 / qcomp=0.60 / qpmin=0 / qpmax=69 / qpstep=4 / cplxblur=20.0 / qblur=0.5 / ip_ratio=1.40 / aq=3:1.00
Default: Да
Forced: Нет
Аудио
Идентификатор: 2
Формат: AAC
Формат/Информация: Advanced Audio Codec
Профиль формата: HE-AAC / LC
Идентификатор кодека: A_AAC
Продолжительность: 1 ч. 29 м.
Битрейт: 76,0 Кбит/сек
Каналы: 2 канала
Расположение каналов: Front: L R
Частота: 48,0 КГц / 24,0 КГц
Частота кадров: 23,438 кадра/сек (1024 SPF)
Метод сжатия: С потерями
Задержка видео: 31 мс.
Размер потока: 48,9 Мбайт (7%)
Язык: Russian
Default: Да
Forced: Нет
Текст
Идентификатор: 3
Формат: UTF-8
Идентификатор кодека: S_TEXT/UTF8
Идентификатор кодека/Информация: UTF-8 Plain Text
Продолжительность: 11 м. 41 с.
Битрейт: 5 бит/сек
ElementCount: 10
Размер потока: 452 байт (0%)
Заголовок: forsed rus
Default: Да
Forced: Да

Скриншоты

               

_________________

Other forum [Profile] [PM]
Display posts from previous:    
Reply to topic

The time now is: Today 20:21

All times are GMT + 3 Hours



You cannot post new topics in this forum
You cannot reply to topics in this forum
You cannot edit your posts in this forum
You cannot delete your posts in this forum
You cannot vote in polls in this forum
You cannot attach files in this forum
You cannot download files in this forum