Today is a free download without charge Download

В тени Луны / In the Shadow of the Moon (2019) WEBRip [H.264/1080p-LQ] [PR]

Reply to topic
 
Author
Message

Clavik ®

Gender:

Longevity: 6 years 1 month

Posts: 2301

Location: Украина

Торрент-статистика

Post 27-Sep-2019 17:30

[Quote]

В тени Луны / In the Shadow of the Moon (2019) WEBRip [H.264/1080p-LQ]- Производство: США / 42, Automatik, Belladonna Productions
Жанр: Триллер, криминал, детектив, фантастика
Режиссер: Джим Микл
Актеры: Бойд Холбрук, Майкл С. Холл, Боким Вудбайн, Клеопатра Коулмэн, Сара Дагдэйл, Руди Дхармалингхам, Габриэль Грэхэм, Джулия Ноуп, Райан Аллен, Билли Отис
Описание:
Полицейский из Филадельфии Томас Локхарт хочет дослужиться до звания детектива. Для этого он решает лично найти опасного серийного убийцу, на чьём счету несколько загадочных убийств. Преступницей оказывается молодая женщина, которая погибает под колёсами поезда во время потасовки с Локхартом. Несмотря на это, через девять лет она снова даёт о себе знать, и теперь Локхарт должен разобраться, кто она такая и как связаны их судьбы.

Дата мировой премьеры: 27 сентября 2019
Продолжительность: 01:55:32
Качество видео: WEBRip
Перевод: Дублированный (Пифагор )
Субтитры: Русские (forced, full), английские (SDH)
Видео: AVC/H.264, 1920x1080, ~3600 Kbps
Аудио #1: E-AC3, 6 ch, 640 Kbps - Русский
Аудио #2: E-AC-3 JOC, 6 ch, 768 Kbps - Английский

MediaInfo:

Общее
Уникальный идентификатор : 253125829417433565691660972728945180742 (0xBE6E42EEDD69E3A4A10B83398E0B8046)
Полное имя : D:\NNM\В тени луны\In.the.Shadow.of.the.Moon.2019.WEBRip.1080p-LQ.mkv
Формат : Matroska
Версия формата : Version 4
Размер файла : 4,04 Гбайт
Продолжительность : 1 ч. 55 м.
Режим общего битрейта : Переменный
Общий поток : 5000 Кбит/сек
Название фильма : CMRG
Дата кодирования : UTC 2019-09-27 12:57:16
Программа кодирования : mkvmerge v6.9.1 ('Blue Panther') 32bit built on Apr 18 2014 18:15:44
Библиотека кодирования : libebml v1.3.0 + libmatroska v1.4.1
Видео
Идентификатор : 1
Формат : AVC
Формат/Информация : Advanced Video Codec
Профиль формата : [email protected]
Настройки формата : CABAC / 3 Ref Frames
Параметр CABAC формата : Да
Параметр RefFrames формата : 3 кадра
Идентификатор кодека : V_MPEG4/ISO/AVC
Продолжительность : 1 ч. 55 м.
Вид битрейта : Переменный
Битрейт : 3650 Кбит/сек
Максимальный битрейт : 5475 Кбит/сек
Ширина : 1920 пикселей
Высота : 1080 пикселей
Соотношение сторон : 16:9
Режим частоты кадров : Постоянный
Частота кадров : 24,000 кадра/сек
Цветовое пространство : YUV
Субдискретизация насыщенности : 4:2:0
Битовая глубина : 8 бит
Тип развёртки : Прогрессивная
Бит/(Пиксели*Кадры) : 0.073
Размер потока : 2,82 Гбайт (70%)
Язык : English
Default : Да
Forced : Нет
Аудио #1
Идентификатор : 2
Формат : E-AC-3
Формат/Информация : Enhanced AC-3
Коммерческое название : Dolby Digital Plus
Идентификатор кодека : A_EAC3
Продолжительность : 1 ч. 55 м.
Вид битрейта : Постоянный
Битрейт : 640 Кбит/сек
Каналы : 6 каналов
ChannelLayout : L R C LFE Ls Rs
Частота : 48,0 КГц
Частота кадров : 31,250 кадров/сек (1536 SPF)
Метод сжатия : С потерями
Размер потока : 529 Мбайт (13%)
Заголовок : rus
Язык : Russian
ServiceKind/String : Complete Main
Default : Да
Forced : Нет
Аудио #2
Идентификатор : 3
Формат : E-AC-3 JOC
Формат/Информация : Enhanced AC-3 with Joint Object Coding
Коммерческое название : Dolby Digital Plus with Dolby Atmos
Идентификатор кодека : A_EAC3
Продолжительность : 1 ч. 55 м.
Вид битрейта : Постоянный
Битрейт : 768 Кбит/сек
Каналы : 6 каналов
ChannelLayout : L R C LFE Ls Rs
Частота : 48,0 КГц
Частота кадров : 31,250 кадров/сек (1536 SPF)
Метод сжатия : С потерями
Размер потока : 635 Мбайт (15%)
Заголовок : eng
Язык : English
ServiceKind/String : Complete Main
Default : Нет
Forced : Нет
ComplexityIndex : 16
NumberOfDynamicObjects : 15
BedChannelCount/String : 1 канал
BedChannelConfiguration : LFE
Текст #1
Идентификатор : 4
Формат : UTF-8
Идентификатор кодека : S_TEXT/UTF8
Идентификатор кодека/Информация : UTF-8 Plain Text
Заголовок : rusForced
Язык : Russian
Default : Да
Forced : Да
Текст #2
Идентификатор : 5
Формат : UTF-8
Идентификатор кодека : S_TEXT/UTF8
Идентификатор кодека/Информация : UTF-8 Plain Text
Заголовок : rusFull
Язык : Russian
Default : Нет
Forced : Нет
Текст #3
Идентификатор : 6
Формат : UTF-8
Идентификатор кодека : S_TEXT/UTF8
Идентификатор кодека/Информация : UTF-8 Plain Text
Заголовок : engSDH
Язык : English
Default : Нет
Forced : Нет
Скриншоты:        

_________________


Other forum [Profile] [PM]
Display posts from previous:    
Reply to topic

The time now is: Today 15:51

All times are GMT + 3 Hours



You cannot post new topics in this forum
You cannot reply to topics in this forum
You cannot edit your posts in this forum
You cannot delete your posts in this forum
You cannot vote in polls in this forum
You cannot attach files in this forum
You cannot download files in this forum