Today is a free download without charge Download

(Hard Bop) Tad Shull Quartet - In the Land of the Teno - 1993, FLAC (image + .cue), lossless

Reply to topic
 
Author
Message

Soldat_5 ®

Longevity: 1 month 5 days

Posts: 66

Торрент-статистика

Post 09-Nov-2019 10:13

[Quote]

Tad Shull Quartet - In the Land of the Teno

Страна: США
Жанр: Hard Bop
Год выпуска: 1993
Формат: FLAC (image + .cue)
Битрейт аудио: lossless
Продолжительность: 01:00:13

Трэклист:

01. Here's the Kicker (Shull) - 7:40
02. Night Horse (Shull) - 5:16
03. I Keep Going Back to Joe's (Fisher-Segal) - 8:04
04. A Portrait of Bojangles (Ellington) - 7:42
05. This Is New (Weill) - 6:08
06. Pick Yourself Up (Fields-Kern) - 7:13
07. Nobody Else But Me (Kern) - 6:58
08. Angel Face (Jones) - 5:57
09. Prey-Loot (Thompson) - 5:15

Доп. информация:

Состав:
Tad Shull - tenor saxophone
Mike LeDonne - piano
Dennis Irwin - bass
Kenny Washington - drums
Recorded at Sear Sound, New York on December 17, 1991.

Лог создания рипа

Exact Audio Copy V1.3 from 2. September 2016
EAC extraction logfile from 8. November 2019, 13:50
Tad Shull / In the Land of the Tenor
Used drive : hp DVDRW GUD1N Adapter: 1 ID: 0
Read mode : Secure
Utilize accurate stream : Yes
Defeat audio cache : Yes
Make use of C2 pointers : No
Read offset correction : 6
Overread into Lead-In and Lead-Out : No
Fill up missing offset samples with silence : Yes
Delete leading and trailing silent blocks : No
Null samples used in CRC calculations : Yes
Used interface : Native Win32 interface for Win NT & 2000
Used output format : User Defined Encoder
Selected bitrate : 896 kBit/s
Quality : High
Add ID3 tag : No
Command line compressor : C:\Program Files (x86)\Exact Audio Copy\Flac\flac.exe
Additional command line options : %tracknr1%%title%
TOC of the extracted CD
Track | Start | Length | Start sector | End sector
---------------------------------------------------------
1 | 0:00.00 | 7:40.10 | 0 | 34509
2 | 7:40.10 | 5:15.70 | 34510 | 58204
3 | 12:56.05 | 8:04.22 | 58205 | 94526
4 | 21:00.27 | 7:41.45 | 94527 | 129146
5 | 28:41.72 | 6:08.30 | 129147 | 156776
6 | 34:50.27 | 7:13.25 | 156777 | 189276
7 | 42:03.52 | 6:57.45 | 189277 | 220596
8 | 49:01.22 | 5:57.03 | 220597 | 247374
9 | 54:58.25 | 5:15.27 | 247375 | 271026
Range status and errors
Selected range
Filename C:\Users\olgat\Desktop\Shull\Tad Shull - In the Land of the Tenor.wav
Peak level 95.5 %
Extraction speed 2.0 X
Range quality 100.0 %
Test CRC 9B4C720E
Copy CRC 9B4C720E
Copy OK
No errors occurred
AccurateRip summary
Track 1 not present in database
Track 2 not present in database
Track 3 not present in database
Track 4 not present in database
Track 5 not present in database
Track 6 not present in database
Track 7 not present in database
Track 8 not present in database
Track 9 not present in database
None of the tracks are present in the AccurateRip database
End of status report
---- CUETools DB Plugin V2.1.6
[CTDB TOCID: FVPmYBvSpTWPNNkVWm6nLyMZbbY-] found
Submit result: already submitted
Track | CTDB Status
1 | (2/2) Accurately ripped
2 | (2/2) Accurately ripped
3 | (2/2) Accurately ripped
4 | (2/2) Accurately ripped
5 | (2/2) Accurately ripped
6 | (2/2) Accurately ripped
7 | (2/2) Accurately ripped
8 | (2/2) Accurately ripped
9 | (2/2) Accurately ripped
==== Log checksum 9E895896F41783FA31BE1E598098E98C20B7E54334828E38344AE94FBB389EBF ====
Other forum [Profile] [PM]
Display posts from previous:    
Reply to topic

The time now is: Today 11:41

All times are GMT + 3 Hours



You cannot post new topics in this forum
You cannot reply to topics in this forum
You cannot edit your posts in this forum
You cannot delete your posts in this forum
You cannot vote in polls in this forum
You cannot attach files in this forum
You cannot download files in this forum