Today is a free download without charge Download

(Hard Bop, Post-Bop) D.E.W. East - Introducing D.E.W. East - 1999, FLAC (image + .cue), lossless

Reply to topic
 
Author
Message

Soldat_5 ®

Longevity: 1 month 5 days

Posts: 66

Торрент-статистика

Post 12-Nov-2019 22:11

[Quote]

D.E.W. East - Introducing D.E.W. East
Страна: Канада
Жанр: Hard Bop, Post-Bop
Год выпуска: 1999
Формат: FLAC ( tracks + .cue)
Битрейт аудио: lossless
Продолжительность: 01:00:22
Трэклист:
01. Give Every Man His D.E.W. (Wallace) - 6:27
02. Mr. B.C. (Dean) - 7:42
03. The Thruster (Elmes) - 10:41
04. It's Easy to Remember (Hart-Rodgers) - 7:17
05. Don't Get Lost (Elmes) - 4:57
06. The Foolish Things (Marvell-Strachey-Link) - 6:02
07. Waltz New (Dean) - 10:00
08. Soul-Ammons-Dean (Dean-Elmes-Wallace) - 7:16

Доп. информация:

Состав:
Alex Dean - saxophones, bass clarinet, flute
Barry Elmes - drums
Steve Wallace - bass
Recorded at The Gatwick, Toronto on October 11, 1998 and January 21, 1999.

Лог создания рипа

Exact Audio Copy V1.3 from 2. September 2016
EAC extraction logfile from 26. September 2019, 23:15
D.E.W. East / Introducing D.E.W. East
Used drive : HL-DT-STDVDRAM GH24NSD1 Adapter: 1 ID: 3
Read mode : Secure
Utilize accurate stream : Yes
Defeat audio cache : Yes
Make use of C2 pointers : No
Read offset correction : 6
Overread into Lead-In and Lead-Out : No
Fill up missing offset samples with silence : Yes
Delete leading and trailing silent blocks : No
Null samples used in CRC calculations : Yes
Used interface : Native Win32 interface for Win NT & 2000
Gap handling : Appended to previous track
Used output format : User Defined Encoder
Selected bitrate : 768 kBit/s
Quality : High
Add ID3 tag : No
Command line compressor : C:\Program Files (x86)\FLAC\flac.exe
Additional command line options : -8 -V -T "ARTIST=%artist%" -T "TITLE=%title%" -T "ALBUM=%albumtitle%" -T "DATE=%year%" -T "TRACKNUMBER=%tracknr%" -T "TOTALTRACKS=%numtracks%" -T "GENRE=%genre%" -T "ALBUMARTIST=%albumartist%" -T "ALBUM ARTIST=%albumartist%" -T "COMMENT=EAC Secure Mode, Test & Copy, AccurateRip, FLAC -8" %source%
TOC of the extracted CD
Track | Start | Length | Start sector | End sector
---------------------------------------------------------
1 | 0:00.00 | 6:26.66 | 0 | 29015
2 | 6:26.66 | 7:42.24 | 29016 | 63689
3 | 14:09.15 | 10:41.13 | 63690 | 111777
4 | 24:50.28 | 7:16.67 | 111778 | 144544
5 | 32:07.20 | 4:56.48 | 144545 | 166792
6 | 37:03.68 | 6:02.05 | 166793 | 193947
7 | 43:05.73 | 9:59.43 | 193948 | 238915
8 | 53:05.41 | 7:16.31 | 238916 | 271646
Track 1
Filename H:\! UPLOADS\D.E.W. East - Introducing D.E.W. East (1999) [FLAC]\01 Give Every Man His D.E.W..wav
Pre-gap length 0:00:02.00
Peak level 100.0 %
Extraction speed 4.8 X
Track quality 100.0 %
Test CRC 1E46F9BA
Copy CRC 1E46F9BA
Accurately ripped (confidence 3) [46851826] (AR v2)
Copy OK
Track 2
Filename H:\! UPLOADS\D.E.W. East - Introducing D.E.W. East (1999) [FLAC]\02 Mr. B.C..wav
Pre-gap length 0:00:02.00
Peak level 99.8 %
Extraction speed 5.6 X
Track quality 100.0 %
Test CRC 4CD4E0FF
Copy CRC 4CD4E0FF
Accurately ripped (confidence 3) [12E003FA] (AR v2)
Copy OK
Track 3
Filename H:\! UPLOADS\D.E.W. East - Introducing D.E.W. East (1999) [FLAC]\03 The Thruster.wav
Pre-gap length 0:00:02.00
Peak level 99.6 %
Extraction speed 6.7 X
Track quality 100.0 %
Test CRC 1FA28060
Copy CRC 1FA28060
Accurately ripped (confidence 3) [0F2ADB4B] (AR v2)
Copy OK
Track 4
Filename H:\! UPLOADS\D.E.W. East - Introducing D.E.W. East (1999) [FLAC]\04 It's Easy To Remember.wav
Pre-gap length 0:00:02.00
Peak level 98.5 %
Extraction speed 6.1 X
Track quality 99.9 %
Test CRC 5FA43192
Copy CRC 5FA43192
Accurately ripped (confidence 3) [0452F547] (AR v2)
Copy OK
Track 5
Filename H:\! UPLOADS\D.E.W. East - Introducing D.E.W. East (1999) [FLAC]\05 Don't Get Lost.wav
Pre-gap length 0:00:01.98
Peak level 100.0 %
Extraction speed 7.1 X
Track quality 100.0 %
Test CRC DEC28ED2
Copy CRC DEC28ED2
Accurately ripped (confidence 3) [91123154] (AR v2)
Copy OK
Track 6
Filename H:\! UPLOADS\D.E.W. East - Introducing D.E.W. East (1999) [FLAC]\06 The Foolish Things.wav
Pre-gap length 0:00:02.00
Peak level 100.0 %
Extraction speed 7.4 X
Track quality 100.0 %
Test CRC 5A529A80
Copy CRC 5A529A80
Accurately ripped (confidence 3) [0DF473E6] (AR v2)
Copy OK
Track 7
Filename H:\! UPLOADS\D.E.W. East - Introducing D.E.W. East (1999) [FLAC]\07 Waltz New.wav
Pre-gap length 0:00:02.00
Peak level 99.9 %
Extraction speed 8.0 X
Track quality 99.9 %
Test CRC 870F49FA
Copy CRC 870F49FA
Accurately ripped (confidence 3) [621CEC65] (AR v2)
Copy OK
Track 8
Filename H:\! UPLOADS\D.E.W. East - Introducing D.E.W. East (1999) [FLAC]\08 Soul-Ammons-Dean.wav
Pre-gap length 0:00:02.00
Peak level 100.0 %
Extraction speed 8.7 X
Track quality 100.0 %
Test CRC 3785EF59
Copy CRC 3785EF59
Accurately ripped (confidence 3) [32B1846E] (AR v2)
Copy OK
All tracks accurately ripped
No errors occurred
End of status report
---- CUETools DB Plugin V2.1.6
[CTDB TOCID: 1o02X1KFldsjeM_BndbXTG_xA30-] found
Submit result: 1o02X1KFldsjeM_BndbXTG_xA30- has been confirmed
Track | CTDB Status
1 | (3/3) Accurately ripped
2 | (3/3) Accurately ripped
3 | (3/3) Accurately ripped
4 | (3/3) Accurately ripped
5 | (3/3) Accurately ripped
6 | (3/3) Accurately ripped
7 | (3/3) Accurately ripped
8 | (3/3) Accurately ripped
==== Log checksum E5BC5B35AD5172FDBD0F53DA81471D81758F35B0CB06C29036BC20481EDFD219 ====

Содержание индексной карты (.CUE)

REM GENRE Jazz
REM DATE 1999
REM DISCID 7C0E2508
REM COMMENT "ExactAudioCopy v1.3"
PERFORMER "D.E.W. East"
TITLE "Introducing D.E.W. East"
FILE "01 - Give Every Man His D.E.W..wav" WAVE
TRACK 01 AUDIO
TITLE "Give Every Man His D.E.W."
PERFORMER "D.E.W. East"
INDEX 01 00:00:00
TRACK 02 AUDIO
TITLE "Mr. B.C."
PERFORMER "D.E.W. East"
INDEX 00 06:24:66
FILE "02 - Mr. B.C..wav" WAVE
INDEX 01 00:00:00
TRACK 03 AUDIO
TITLE "The Thruster"
PERFORMER "D.E.W. East"
INDEX 00 07:40:24
FILE "03 - The Thruster.wav" WAVE
INDEX 01 00:00:00
TRACK 04 AUDIO
TITLE "It's Easy to Remember"
PERFORMER "D.E.W. East"
INDEX 00 10:39:13
FILE "04 - It's Easy to Remember.wav" WAVE
INDEX 01 00:00:00
TRACK 05 AUDIO
TITLE "Don't Get Lost"
PERFORMER "D.E.W. East"
INDEX 00 07:14:68
FILE "05 - Don't Get Lost.wav" WAVE
INDEX 01 00:00:00
TRACK 06 AUDIO
TITLE "The Foolish Things"
PERFORMER "D.E.W. East"
INDEX 00 04:54:48
FILE "06 - The Foolish Things.wav" WAVE
INDEX 01 00:00:00
TRACK 07 AUDIO
TITLE "Waltz New"
PERFORMER "D.E.W. East"
INDEX 00 06:00:05
FILE "07 - Waltz New.wav" WAVE
INDEX 01 00:00:00
TRACK 08 AUDIO
TITLE "Soul-Ammons-Dean"
PERFORMER "D.E.W. East"
INDEX 00 09:57:43
FILE "08 - Soul-Ammons-Dean.wav" WAVE
INDEX 01 00:00:00
Other forum [Profile] [PM]
Display posts from previous:    
Reply to topic

The time now is: Today 10:11

All times are GMT + 3 Hours



You cannot post new topics in this forum
You cannot reply to topics in this forum
You cannot edit your posts in this forum
You cannot delete your posts in this forum
You cannot vote in polls in this forum
You cannot attach files in this forum
You cannot download files in this forum