Today is a free download without charge Download

Charles Aznavour & The Clayton-Hamilton Jazz Orchestra (2009) EMI [FLAC|Lossless|image + .cue] <Big Band, Vocal Jazz, Shanson>

Reply to topic
 
Author
Message

Soldat_5 ®

Longevity: 1 year 5 months

Posts: 178

Торрент-статистика

Post 02-Jan-2020 13:02

[Quote]

Charles Aznavour & The Clayton-Hamilton Jazz Orchestra (2009) EMI - Жанр: Big Band, Vocal Jazz, Shanson
Издание: EMI - 5099945 859021
Продолжительность: 00:56:30
Кодек: FLAC (image+.cue)
Битрейт: Lossless
Источник (релизер): dm-71
Страна-производитель диска: EU
Наличие сканов в содержимом раздачи: нет
Треклист:
01. Viens Fais-Moi Rever [4:19]
02. Fier De Nous (Duet with Rachelle Ferrell) [4:27]
03. Comme Ils Disent [3:48]
04. Des Amis Des Deux Cotes [3:43]
05. A Ma Fille [4:52]
06. Le Jazz Est Revenu [3:28]
07. I've Discovered That I Love You (Duet with Rachelle Ferrell) [4:10]
08. Il Faut Savoir [3:28]
09. The Jam [3:44]
10. Je N'oublierai Jamais [4:35]
11. La Boheme [5:23]
12. De Moins En Moins [4:39]
13. Voila Que Ca Recommence [2:58]
14. The Times We've Known (Duet with Dianne Reeves) [2:57]

Отчёт EAC&#58;

Exact Audio Copy V0.99 prebeta 5 from 4. May 2009
Отчёт EAC об извлечении, выполненном 2. февраля 2010, 16:07
Charles Aznavour / Charles Aznavour & The Clayton-Hamilton Jazz Orchestra
Дисковод: PIONEER DVD-RW DVR-111D Adapter: 0 ID: 0
Режим чтения : Достоверность
Использование точного потока : Да
Отключение кэша аудио : Да
Использование указателей C2 : Нет
Коррекция смещения при чтении : 48
Способность читать области Lead-in и Lead-out : Нет
Заполнение пропущенных сэмплов тишиной : Да
Удаление блоков с тишиной в начале и конце : Нет
При вычислениях CRC использовались нулевые сэмплы : Да
Интерфейс : Встроенный Win32-интерфейс для Win NT/2000
Выходной формат : Внутренние WAV-операции
Формат сэмплов : 44.100 Гц; 16 бит; стерео
TOC извлечённого CD
Трек | Старт | Длительность | Начальный сектор | Конечный сектор
---------------------------------------------------------------------
1 | 0:00.00 | 4:18.60 | 0 | 19409
2 | 4:18.60 | 4:27.23 | 19410 | 39457
3 | 8:46.08 | 3:47.39 | 39458 | 56521
4 | 12:33.47 | 3:42.43 | 56522 | 73214
5 | 16:16.15 | 4:51.53 | 73215 | 95092
6 | 21:07.68 | 3:27.74 | 95093 | 110691
7 | 24:35.67 | 4:10.16 | 110692 | 129457
8 | 28:46.08 | 3:27.42 | 129458 | 145024
9 | 32:13.50 | 3:44.10 | 145025 | 161834
10 | 35:57.60 | 4:35.22 | 161835 | 182481
11 | 40:33.07 | 5:22.55 | 182482 | 206686
12 | 45:55.62 | 4:39.04 | 206687 | 227615
13 | 50:34.66 | 2:57.56 | 227616 | 240946
14 | 53:32.47 | 2:57.34 | 240947 | 254255
Характеристики диапазона извлечения и сообщения об ошибках
Выбранный диапазон
Имя файла C:\Documents and Settings\Владелец\Рабочий стол\Charles Aznavour - Charles Aznavour & The Clayton-Hamilton Jazz Orchestra (2009) (Flac)\Charles Aznavour - Charles Aznavour & The Clayton-Hamilton Jazz Orchestra.wav
Пиковый уровень 99.8 %
Качество диапазона 100.0 %
CRC теста 0FD24ED3
CRC копии 0FD24ED3
Копирование... OK
Ошибок не произошло
AccurateRip: сводка
Трек 1 точное извлечение (доверие 4) [538A2A09]
Трек 2 точное извлечение (доверие 4) [0BDECE2E]
Трек 3 точное извлечение (доверие 4) [8D3B766C]
Трек 4 точное извлечение (доверие 4) [82DB2B27]
Трек 5 точное извлечение (доверие 4) [20A70DF2]
Трек 6 точное извлечение (доверие 4) [EFD0B495]
Трек 7 точное извлечение (доверие 4) [250EF9F9]
Трек 8 точное извлечение (доверие 4) [649D3959]
Трек 9 точное извлечение (доверие 4) [84ABD3F1]
Трек 10 точное извлечение (доверие 4) [BADB2D66]
Трек 11 точное извлечение (доверие 4) [5CFC90BC]
Трек 12 точное извлечение (доверие 4) [4CFAF166]
Трек 13 точное извлечение (доверие 4) [0443F50F]
Трек 14 точное извлечение (доверие 4) [8FE3A606]
Все треки извлечены точно
Конец отчёта
Other forum [Profile] [PM]
Display posts from previous:    
Reply to topic

The time now is: Today 12:52

All times are GMT + 3 Hours



You cannot post new topics in this forum
You cannot reply to topics in this forum
You cannot edit your posts in this forum
You cannot delete your posts in this forum
You cannot vote in polls in this forum
You cannot attach files in this forum
You cannot download files in this forum