Today is a free download without charge Download

21 грамм / 21 Grams (2003) BDRip [H.264/720p-LQ] [10 bit]

Reply to topic
 
Author
Message

RazBoyNik ®

Gender:

Longevity: 8 years

Posts: 468

Торрент-статистика

Post 15-Feb-2020 11:23

[Quote]

21 грамм / 21 Grams (2003) BDRip - Год: 2003
Производство: США / Mediana Productions Filmgesellschaft, This Is That Productions
Жанр: Драма, Триллер, Криминал
Режиссер: Алехандро Гонсалес Иньярриту
Актеры: Шон Пенн, Наоми Уоттс, Бенисио Дель Торо, Шарлотта Генсбур, Мелисса Лео, Эдди Марсан, Клеа ДюВалл, Дэнни Хьюстон, Пол Кальдерон
Описание:
Говорят, что каждый человек в момент смерти теряет 21 грамм. Столько весит горстка монет в пять центов, плитка шоколада, птица колибри…
«21 грамм» — это история о надежде и человечности, жизнелюбии и выживании. Независимо от того, боитесь вы смерти или нет, она приходит, и в этот момент ваше тело становится на 21 грамм легче. Быть может, это вес человеческой души?

Возраст: 16+ (зрителям, достигшим 16 лет)
Рейтинг MPAA: R (лицам до 17 лет обязательно присутствие взрослого)
Продолжительность: 02:04:36
Качество видео: BDRip
Перевод: Дублированный, Многоголосый профессиональный х2
Субтитры: Русские, Английские
Видео: AVC/H.264, 1280x694, ~2500 Kbps
Аудио #1: AC3, 6 ch, 448 Kbps - Русский (DUB - Blu-Ray "ПАРАДИЗ-ВC")
Аудио #2: AC3, 6 ch, 448 Kbps - Английский
Аудио #3: AC3, 6 ch, 448 Kbps - Русский (MVO - Tycoon)
Аудио #4: AC3, 6 ch, 384 Kbps - Русский (MVO - R1)

MediaInfo:

General
Unique ID : 299765572658815623491000570528965748942 (0xE184BFD007143B774179C708538268CE)
Complete name : /media/win/TORRENT/UPLOAD_TORRENTS/gBagIIamb_0guH_rpaMM_2003_BDRip_H264_H10P_720p (1).mkv
Format : Matroska
Format version : Version 4
File size : 2.62 GiB
Duration : 2 h 4 min
Overall bit rate : 3 006 kb/s
Movie name : gBagIIamb_0guH_rpaMM_2003_BDRip_H264_H10P_720p
Encoded date : UTC 2020-02-04 13:55:40
Writing application : mkvmerge v42.0.0 ('Overtime') 64-bit
Writing library : libebml v1.3.10 + libmatroska v1.5.2
IsTruncated : Yes
Video
ID : 1
Format : AVC
Format/Info : Advanced Video Codec
Format profile : High [url=mailto:[email protected]][email protected][/url]
Format settings : CABAC / 9 Ref Frames
Format settings, CABAC : Yes
Format settings, Reference frames : 9 frames
Codec ID : V_MPEG4/ISO/AVC
Duration : 2 h 4 min
Bit rate : 1 218 kb/s
Nominal bit rate : 2 500 kb/s
Width : 1 280 pixels
Height : 694 pixels
Display aspect ratio : 1.85:1
Frame rate mode : Constant
Frame rate : 23.976 (24000/1001) FPS
Color space : YUV
Chroma subsampling : 4:2:0
Bit depth : 10 bits
Scan type : Progressive
Bits/(Pixel*Frame) : 0.057
Stream size : 1.06 GiB (41%)
Writing library : x264 core 159 r2991 1771b55
Encoding settings : cabac=1 / ref=9 / deblock=1:0:0 / analyse=0x3:0x113 / me=umh / subme=9 / psy=1 / psy_rd=1,00:0,00 / mixed_ref=1 / me_range=24 / chroma_me=1 / trellis=1 / 8x8dct=1 / cqm=0 / deadzone=21,11 / fast_pskip=1 / chroma_qp_offset=-2 / threads=22 / lookahead_threads=2 / sliced_threads=0 / nr=0 / decimate=1 / interlaced=0 / bluray_compat=0 / constrained_intra=0 / bframes=6 / b_pyramid=2 / b_adapt=2 / b_bias=0 / direct=1 / weightb=1 / open_gop=0 / weightp=2 / keyint=240 / keyint_min=24 / scenecut=40 / intra_refresh=0 / rc_lookahead=40 / rc=2pass / mbtree=1 / bitrate=2500 / ratetol=1,0 / qcomp=0,60 / qpmin=0 / qpmax=81 / qpstep=4 / cplxblur=20,0 / qblur=0,5 / vbv_maxrate=150000 / vbv_bufsize=187500 / nal_hrd=none / filler=0 / ip_ratio=1,40 / aq=1:1,00
Default : Yes
Forced : No
Color range : Limited
Color primaries : BT.709
Transfer characteristics : BT.709
Matrix coefficients : BT.709
Audio #1
ID : 2
Format : AC-3
Format/Info : Audio Coding 3
Commercial name : Dolby Digital
Codec ID : A_AC3
Duration : 2 h 4 min
Bit rate mode : Constant
Bit rate : 448 kb/s
Channel(s) : 6 channels
Channel layout : L R C LFE Ls Rs
Sampling rate : 48.0 kHz
Frame rate : 31.250 FPS (1536 SPF)
Compression mode : Lossy
Delay relative to video : -5 ms
Stream size : 399 MiB (15%)
Title : RUS DUB
Language : Russian
Service kind : Complete Main
Default : No
Forced : No
Audio #2
ID : 3
Format : AC-3
Format/Info : Audio Coding 3
Commercial name : Dolby Digital
Codec ID : A_AC3
Duration : 2 h 4 min
Bit rate mode : Constant
Bit rate : 448 kb/s
Channel(s) : 6 channels
Channel layout : L R C LFE Ls Rs
Sampling rate : 48.0 kHz
Frame rate : 31.250 FPS (1536 SPF)
Compression mode : Lossy
Delay relative to video : -5 ms
Stream size : 399 MiB (15%)
Title : ENG
Language : English
Service kind : Complete Main
Default : No
Forced : No
Audio #3
ID : 6
Format : AC-3
Format/Info : Audio Coding 3
Commercial name : Dolby Digital
Codec ID : A_AC3
Duration : 2 h 4 min
Bit rate mode : Constant
Bit rate : 448 kb/s
Channel(s) : 6 channels
Channel layout : L R C LFE Ls Rs
Sampling rate : 48.0 kHz
Frame rate : 31.250 FPS (1536 SPF)
Compression mode : Lossy
Delay relative to video : -5 ms
Stream size : 399 MiB (15%)
Title : RUS (MVO Tycoon)
Language : Russian
Service kind : Complete Main
Default : Yes
Forced : No
Audio #4
ID : 7
Format : AC-3
Format/Info : Audio Coding 3
Commercial name : Dolby Digital
Codec ID : A_AC3
Duration : 2 h 4 min
Bit rate mode : Constant
Bit rate : 384 kb/s
Channel(s) : 6 channels
Channel layout : L R C LFE Ls Rs
Sampling rate : 48.0 kHz
Frame rate : 31.250 FPS (1536 SPF)
Compression mode : Lossy
Delay relative to video : -5 ms
Stream size : 342 MiB (13%)
Title : RUS (MVO R1)
Language : Russian
Service kind : Complete Main
Default : No
Forced : No
Text #1
ID : 4
Format : ASS
Codec ID : S_TEXT/ASS
Codec ID/Info : Advanced Sub Station Alpha
Compression mode : Lossless
Language : Russian
Default : No
Forced : No
Text #2
ID : 5
Format : ASS
Codec ID : S_TEXT/ASS
Codec ID/Info : Advanced Sub Station Alpha
Compression mode : Lossless
Language : English
Default : No
Forced : No
Menu
00:00:00.000 : :1. Mom Is Waiting for Us
00:04:03.702 : :2. So This Is Death's Waiting Room?
00:07:17.103 : :3. Jesus Is Our Hope
00:11:20.972 : :4. Call an Ambulance
00:14:30.787 : :5. Washing the Past
00:18:32.111 : :6. There's No Hitting in This House
00:22:11.455 : :7. Nobody Saw Him
00:26:51.944 : :8. Have You Been Drinking?
00:31:30.806 : :9. Heart-to-Heart
00:38:35.230 : :10. Duty Bound
00:43:18.930 : :11. The First Day of My New Life
00:45:32.521 : :12. Life Does Not Go On
00:49:52.990 : :13. Original Owner
00:52:48.415 : :14. Bled Dry
00:54:51.455 : :15. God Even Knows When a Single Hair Moves...
00:57:00.751 : :16. Going to Heaven
00:59:47.417 : :17. Your Friend
01:03:26.594 : :18. Did You Bring What I Asked You For?
01:06:06.838 : :19. Making Plans
01:10:44.907 : :20. Coming Home
01:14:53.614 : :21. Hidden Numbers
01:16:33.047 : :22. You Shouldn't Have Done It
01:20:47.259 : :23. Can I See You Again?
01:24:28.146 : :24. A Good Heart
01:36:01.923 : :25. Lack of Evidence
01:39:50.109 : :26. Daddy, a Pigeon!
01:43:22.822 : :27. Despair
01:45:18.270 : :28. Red Shoelaces
01:49:31.690 : :29. You're Pregnant
01:50:28.122 : :30. How Many Times?
01:55:34.469 : :31. 21 Grams
01:58:18.174 : :32. End Titles

Дополнительная информация:

Награды и номинации:
Сезар, 2005 год
Номинации (1):
Лучший фильм на иностранном языке
Оскар, 2004 год
Номинации (2):
Лучшая женская роль (Наоми Уоттс)
Лучшая мужская роль второго плана (Бенисио Дель Торо)
Британская академия, 2004 год
Номинации (5):
Лучшая мужская роль (Бенисио Дель Торо)
Лучшая мужская роль (Шон Пенн)
Лучшая женская роль (Наоми Уоттс)
Лучший оригинальный сценарий
Лучший монтаж
Премия Гильдии актеров, 2004 год
Номинации (2):
Лучшая женская роль (Наоми Уоттс)
Лучшая мужская роль второго плана (Бенисио Дель Торо)
Венецианский кинофестиваль, 2003 год
Победитель (4):
Кубок Вольпи за лучшую мужскую роль ( Шон Пенн )
Приз зрительских симпатий за лучшую мужскую роль ( Бенисио Дель Торо )
Приз зрительских симпатий за лучшую женскую роль ( Наоми Уоттс )
Приз компании Wella
Номинации (1):
Золотой лев
Европейская киноакадемия, 2003 год
Номинации (1):
Премия Screen International Award
Премия Национального совета обозревателей и «Золотой сателлит» за главную мужскую роль (Шон Пенн — также за участие в картине «Таинственная река» / Mystic River), специальное упоминание на церемонии вручения премий «Независимый дух».
Скриншоты:
       
Other forum [Profile] [PM]
Display posts from previous:    
Reply to topic

The time now is: Today 15:22

All times are GMT + 3 Hours



You cannot post new topics in this forum
You cannot reply to topics in this forum
You cannot edit your posts in this forum
You cannot delete your posts in this forum
You cannot vote in polls in this forum
You cannot attach files in this forum
You cannot download files in this forum