Today is a free download without charge Download

Холоп (Клим Шипенко) [2010, Комедия, CamRip, 720p-LQ]

Reply to topic
 
Author
Message

mayor ®

Gender:

Longevity: 5 months 28 days

Posts: 206

Location: РФ

Торрент-статистика

Post 04-Jan-2020 19:42

[Quote]

- Холоп - Производство: Россия, Yellow, Black & White
Жанр: Комедия
Режиссер: Клим Шипенко
Продюсер: Эдуард Илоян, Таймураз Бадзиев, Вячеслав Дусмухаметов
Актеры: Милош Бикович, Александра Бортич, Александр Самойленко, Иван Охлобыстин, Мария Миронова, Олег Комаров, Ольга Дибцева, Кирилл Нагиев, Сергей Соцердотский, Софья Зайка
Описание:
Молодой мажор Гриша заигрался в красивую жизнь и решил, что ему всё дозволено. Он натворил много дел, и теперь ему грозит тюрьма. Чтобы исправить своего сына, отчаявшийся отец-олигарх идёт на крайние меры. Вместе со своим старинным другом-психологом он придумывает уникальный проект: на базе заброшенной деревни воссоздаётся атмосфера России девятнадцатого века. Гриша попадает в подстроенную аварию и якобы переносится в прошлое. На самом деле, над ним проводится изощрённый психологический эксперимент - избалованного мажора превращают в обычного холопа Гришку, живущего в хлеву на территории барской усадьбы. Его окружают актёры, чья цель - изменить его жизнь и личность. За каждым его движением пристально следит команда психолога с помощью множества камер. Грише предстоит заново научиться общаться с людьми, ценить простые удовольствия, работать, а также обрести истинную любовь.

Возраст: 12+ (зрителям, достигшим 12 лет)
Дата российской премьеры: 26 декабря 2019, «Централ Партнершип»
Продолжительность: 01:43:16
Качество видео: CamRip [http://multi-up.com/1250067]
Перевод: Не требуется (русский)
Субтитры: Отсутствуют
Реклама: Присутствует баннер
Видео: AVC/H.264, 1280x536, 3655 Kbps
Аудио: АС3, 2 ch, 48 kHz, 384 Kbps | Русский

Доп.Информация:

Общее
Уникальный идентификатор : 223539858852513796422682532743880461663 (0xA82C35F68497B54F96316A4C7BE94D5F)
Полное имя : D:\Холоп.2019.CamRip.[720p].
Формат : Matroska
Версия формата : Version 4
Размер файла : 2,91 Гбайт
Продолжительность : 1 ч. 43 м.
Режим общего битрейта : Переменный
Общий поток : 4041 Кбит/сек
Дата кодирования : UTC 2020-01-04 13:46:39
Программа кодирования : mkvmerge v8.3.0 ('Over the Horizon') 64bit
Библиотека кодирования : libebml v1.3.1 + libmatroska v1.4.2
Видео
Идентификатор : 1
Формат : AVC
Формат/Информация : Advanced Video Codec
Профиль формата : [url=mailto:[email protected]][email protected][/url]
Настройки формата : CABAC / 4 Ref Frames
Параметр CABAC формата : Да
Параметр RefFrames формата : 4 кадра
Идентификатор кодека : V_MPEG4/ISO/AVC
Продолжительность : 1 ч. 43 м.
Вид битрейта : Переменный
Битрейт : 3655 Кбит/сек
Максимальный битрейт : 4000 Кбит/сек
Ширина : 1280 пикселей
Высота : 536 пикселей
Соотношение сторон : 2,40:1
Режим частоты кадров : Постоянный
Частота кадров : 23,976 (24000/1001) кадра/сек
Стандарт вещания : Component
Цветовое пространство : YUV
Субдискретизация насыщенности : 4:2:0
Битовая глубина : 8 бит
Тип развёртки : Прогрессивная
Бит/(Пиксели*Кадры) : 0.222
Размер потока : 2,64 Гбайт (90%)
Язык : Russian
Default : Да
Forced : Нет
Цветовой диапазон : Limited
Основные цвета : BT.709
Характеристики трансфера : BT.709
Коэффициенты матрицы : BT.709
Аудио
Идентификатор : 2
Формат : AC-3
Формат/Информация : Audio Coding 3
Коммерческое название : Dolby Digital
Идентификатор кодека : A_AC3
Продолжительность : 1 ч. 43 м.
Вид битрейта : Постоянный
Битрейт : 384 Кбит/сек
Каналы : 2 канала
ChannelLayout : L R
Частота : 48,0 КГц
Частота кадров : 31,250 кадров/сек (1536 SPF)
Битовая глубина : 16 бит
Метод сжатия : С потерями
Размер потока : 284 Мбайт (10%)
Язык : Russian
ServiceKind/String : Complete Main
Default : Да
Forced : Нет
Скриншоты:
       

_________________
Other forum [Profile] [PM]

papa-67

Longevity: 6 years 4 months

Posts: 1

Торрент-статистика

Post 18-Feb-2020 19:13 (after 1 month 13 days)

[Quote]

К сожалению качество на низком уровне((
Other forum [Profile] [PM]
Display posts from previous:    
Reply to topic

The time now is: Today 02:41

All times are GMT + 3 Hours



You cannot post new topics in this forum
You cannot reply to topics in this forum
You cannot edit your posts in this forum
You cannot delete your posts in this forum
You cannot vote in polls in this forum
You cannot attach files in this forum
You cannot download files in this forum