Today is a free download without charge Download

(Epic, Viking, Heavy, Power Metal) Brothers Of Metal - Emblas Saga (Japanese Edition) - 2020 [WavPack, image +.cue, lossless]

Reply to topic
 
Author
Message

sergej644 ®

Gender:

Longevity: 9 years 3 months

Posts: 656

Location: Klaipeda

Торрент-статистика

Post 23-May-2020 17:45

[Quote]

-Brothers Of Metal - Emblas Saga (Japanese Edition)--
Год издания: 2020
Страна: Sweden
Жанр: Epic, Viking, Heavy, Power Metal
Продолжительность: 00:55:14-Лейбл издания: King Records
Страна-выпуска диска: Japan
Номер по каталогу: KICP 4009-Формат: WavPack
Битрейт аудио: Lossless
Тип рипа: image +.cue
Наличие сканов в содержимом раздачи: да
-

Трэклист


01. Brood Of The Trickster (1:56)
02. Powersnake (3:44)
03. Hel (4:40)
04. Chain Breaker (3:53)
05. Kaunaz Dagaz (Dawn Of Fire) (4:14)
06. Theft Of The Hammer (4:11)
07. Weaver Of Fate (4:46)
08. Njord (3:51)
09. Emblas Saga (7:15)
10. Brothers Unite (4:07)
11. One (4:18)
12. Ride Of The Valkyries (3:27)
13. To The Skies And Beyond (4:54)
-

Лог создания рипа

Код:
Exact Audio Copy V1.3 from 2. September 2016
EAC extraction logfile from 6. February 2020, 19:44
Brothers Of Metal / Emblas Saga
Used drive  : HL-DT-STDVDRAM GH24NSD1   Adapter: 1  ID: 0
Read mode               : Secure
Utilize accurate stream : Yes
Defeat audio cache      : Yes
Make use of C2 pointers : No
Read offset correction                      : 6
Overread into Lead-In and Lead-Out          : No
Fill up missing offset samples with silence : Yes
Delete leading and trailing silent blocks   : No
Null samples used in CRC calculations       : Yes
Used interface                              : Native Win32 interface for Win NT & 2000
Used output format              : User Defined Encoder
Selected bitrate                : 896 kBit/s
Quality                         : High
Add ID3 tag                     : No
Command line compressor         : C:\Program Files (x86)\Exact Audio Copy\wavpack.exe
Additional command line options : -hm %source% %dest%
TOC of the extracted CD
     Track |   Start  |  Length  | Start sector | End sector
    ---------------------------------------------------------
        1  |  0:00.00 |  1:56.37 |         0    |     8736
        2  |  1:56.37 |  3:43.39 |      8737    |    25500
        3  |  5:40.01 |  4:40.01 |     25501    |    46501
        4  | 10:20.02 |  3:53.27 |     46502    |    64003
        5  | 14:13.29 |  4:13.65 |     64004    |    83043
        6  | 18:27.19 |  4:10.44 |     83044    |   101837
        7  | 22:37.63 |  4:45.41 |    101838    |   123253
        8  | 27:23.29 |  3:50.39 |    123254    |   140542
        9  | 31:13.68 |  7:14.63 |    140543    |   173155
       10  | 38:28.56 |  4:07.15 |    173156    |   191695
       11  | 42:35.71 |  4:17.47 |    191696    |   211017
       12  | 46:53.43 |  3:26.52 |    211018    |   226519
       13  | 50:20.20 |  4:54.01 |    226520    |   248570
Range status and errors
Selected range
     Filename E:\Brothers Of Metal - 2020 - Emblas Saga (Japanese Edition)\Brothers Of Metal - Emblas Saga.wav
     Peak level 100.0 %
     Extraction speed 7.0 X
     Range quality 100.0 %
     Test CRC CA32081E
     Copy CRC CA32081E
     Copy OK
No errors occurred
AccurateRip summary
Track  1  accurately ripped (confidence 1)  [15011961]  (AR v2)
Track  2  accurately ripped (confidence 1)  [C6D34B64]  (AR v2)
Track  3  accurately ripped (confidence 1)  [55C170E2]  (AR v2)
Track  4  accurately ripped (confidence 1)  [2E43F98C]  (AR v2)
Track  5  accurately ripped (confidence 1)  [AD25805C]  (AR v2)
Track  6  accurately ripped (confidence 1)  [3009C7C8]  (AR v2)
Track  7  accurately ripped (confidence 1)  [B2ED14D1]  (AR v2)
Track  8  accurately ripped (confidence 1)  [88F9CF8A]  (AR v2)
Track  9  accurately ripped (confidence 1)  [2CAE1DEB]  (AR v2)
Track 10  accurately ripped (confidence 1)  [75A64A9B]  (AR v2)
Track 11  accurately ripped (confidence 1)  [2E41F3D3]  (AR v2)
Track 12  accurately ripped (confidence 1)  [DFBA0E05]  (AR v2)
Track 13  accurately ripped (confidence 1)  [84FB39CD]  (AR v2)
All tracks accurately ripped
End of status report

Индексная карта (non-compilant .cue)

Код:
REM GENRE "Epic/Viking/Power Metal"
REM DATE 2020
REM DISCID A30CF20D
REM COMMENT "ExactAudioCopy v1.3"
REM COMPOSER ""
PERFORMER "Brothers Of Metal"
TITLE "Emblas Saga"
FILE "Brothers Of Metal - 2020 - Emblas Saga.wv" WAVE
  TRACK 01 AUDIO
    TITLE "Brood Of The Trickster"
    PERFORMER "Brothers Of Metal"
    REM COMPOSER ""
    INDEX 01 00:00:00
  TRACK 02 AUDIO
    TITLE "Powersnake"
    PERFORMER "Brothers Of Metal"
    REM COMPOSER ""
    INDEX 01 01:56:37
  TRACK 03 AUDIO
    TITLE "Hel"
    PERFORMER "Brothers Of Metal"
    REM COMPOSER ""
    INDEX 00 05:39:73
    INDEX 01 05:40:01
  TRACK 04 AUDIO
    TITLE "Chain Breaker"
    PERFORMER "Brothers Of Metal"
    REM COMPOSER ""
    INDEX 00 10:20:01
    INDEX 01 10:20:02
  TRACK 05 AUDIO
    TITLE "Kaunaz Dagaz (Dawn Of Fire)"
    PERFORMER "Brothers Of Metal"
    REM COMPOSER ""
    INDEX 00 14:13:27
    INDEX 01 14:13:29
  TRACK 06 AUDIO
    TITLE "Theft Of The Hammer"
    PERFORMER "Brothers Of Metal"
    REM COMPOSER ""
    INDEX 00 18:27:17
    INDEX 01 18:27:19
  TRACK 07 AUDIO
    TITLE "Weaver Of Fate"
    PERFORMER "Brothers Of Metal"
    REM COMPOSER ""
    INDEX 01 22:37:63
  TRACK 08 AUDIO
    TITLE "Njord"
    PERFORMER "Brothers Of Metal"
    REM COMPOSER ""
    INDEX 01 27:23:29
  TRACK 09 AUDIO
    TITLE "Emblas Saga"
    PERFORMER "Brothers Of Metal"
    REM COMPOSER ""
    INDEX 00 31:13:59
    INDEX 01 31:13:68
  TRACK 10 AUDIO
    TITLE "Brothers Unite"
    PERFORMER "Brothers Of Metal"
    REM COMPOSER ""
    INDEX 00 38:28:48
    INDEX 01 38:28:56
  TRACK 11 AUDIO
    TITLE "One"
    PERFORMER "Brothers Of Metal"
    REM COMPOSER ""
    INDEX 00 42:35:67
    INDEX 01 42:35:71
  TRACK 12 AUDIO
    TITLE "Ride Of The Valkyries"
    PERFORMER "Brothers Of Metal"
    REM COMPOSER ""
    INDEX 00 46:53:42
    INDEX 01 46:53:43
  TRACK 13 AUDIO
    TITLE "To The Skies And Beyond"
    PERFORMER "Brothers Of Metal"
    REM COMPOSER ""
    INDEX 01 50:20:20
-

для ознакомления:

--

_________________
У нас все платно: родиться, учиться, жениться, лечиться, умереть.
Бесплатно разрешено только работать.
Other forum [Profile] [PM]
Display posts from previous:    
Reply to topic

The time now is: Today 06:42

All times are GMT + 3 Hours



You cannot post new topics in this forum
You cannot reply to topics in this forum
You cannot edit your posts in this forum
You cannot delete your posts in this forum
You cannot vote in polls in this forum
You cannot attach files in this forum
You cannot download files in this forum