Today is a free download without charge Download

Первый отдел (Денис Нейманд) [Серии 1–20 из 20] [2020, криминал, детектив, WEBRip–AVC]

Reply to topic
 
Author
Message

DED ®

Gender:

Longevity: 7 years 4 months

Posts: 4460

Location: СССР

Торрент-статистика

Post 29-Nov-2020 15:32

[Quote]

--Первый отдел-- Год выпуска: 2020
Страна: Россия
Студия: «Триикс Медиа»
Жанр: криминал, детектив
Продолжительность: 20 x ~ 00:50:00
Язык: Русский
Режиссер: Денис Нейманд
В ролях: Иван Колесников, Сергей Жарков, Станислав Ткаченко, Илья Шакунов, Елена Вожакина, Михаил Новиков, Матильда Гассельблат-Прокофьева, Владислав Спирин, Екатерина Королева, Владимир Лысенко, …-Описание: Юрий Брагин после долгой командировки, где он занимался расследованием громкого дела, возвращается в Санкт-Петербург. Вернувшись, он узнаёт, что нынешний руководитель Первого следственного отдела Первого управления ГСУ Вадим Мальцев выходит на пенсию. С большой долей вероятности именно Брагину предложат его место. Но Юрий не карьерист и место начальника – не цель его жизни. Талантливый следователь больше любит заниматься «живой работой».- -Качество видео: WEBRip–AVC
Формат видео: MKV
Видеокодек: H.264
Аудиокодек: AC3
Видео: 1024x576 (1.78:1), 25.000 fps, MPEG-4 AVC, ~ 2000 kbps avg
Аудио: 48.0 kHz, AC3 Dolby Digital, 2/0 (L,R) ch, ~192.00 kbps avg
Cубтитры: нет
-

MediaInfo:

Код:
General
Unique ID : 247094652179734777583866714952649970328 (0xB9E4B2EFE682540AA864C3FC08949298)
Complete name : F:\Первый отдел.(2020).WEBRip.(AVC).Files-x\01.Первый отдел.(2020).WEBRip.(AVC).by.Серый1779.Files-x.mkv
Format : Matroska
Format version : Version 2
File size : 800 MiB
Duration : 50 min 59 s
Overall bit rate : 2 193 kb/s
Encoded date : UTC 2020-11-16 20:37:02
Writing application : mkvmerge v7.8.0 ('River Man') 32bit built on Apr 3 2015 12:11:22
Writing library : libebml v1.3.1 + libmatroska v1.4.2
Video
ID : 1
Format : AVC
Format/Info : Advanced Video Codec
Format profile : [email protected]
Format settings : CABAC / 9 Ref Frames
Format settings, CABAC : Yes
Format settings, RefFrames : 9 frames
Codec ID : V_MPEG4/ISO/AVC
Duration : 50 min 59 s
Bit rate : 2 000 kb/s
Width : 1 024 pixels
Height : 576 pixels
Display aspect ratio : 16:9
Frame rate mode : Constant
Frame rate : 25.000 FPS
Color space : YUV
Chroma subsampling : 4:2:0
Bit depth : 8 bits
Scan type : Progressive
Bits/(Pixel*Frame) : 0.136
Stream size : 714 MiB (89%)
Writing library : x264 core 146 r2538 121396c
Encoding settings : cabac=1 / ref=9 / deblock=1:-2:-1 / analyse=0x3:0x133 / me=umh / subme=9 / psy=1 / psy_rd=1.00:0.15 / mixed_ref=1 / me_range=32 / chroma_me=1 / trellis=2 / 8x8dct=1 / cqm=0 / deadzone=21,11 / fast_pskip=0 / chroma_qp_offset=-3 / threads=18 / lookahead_threads=3 / sliced_threads=0 / nr=0 / decimate=1 / interlaced=0 / bluray_compat=0 / constrained_intra=0 / bframes=9 / b_pyramid=2 / b_adapt=2 / b_bias=0 / direct=1 / weightb=1 / open_gop=0 / weightp=2 / keyint=250 / keyint_min=25 / scenecut=40 / intra_refresh=0 / rc=2pass / mbtree=0 / bitrate=2000 / ratetol=1.0 / qcomp=0.60 / qpmin=0 / qpmax=69 / qpstep=4 / cplxblur=20.0 / qblur=0.5 / ip_ratio=1.40 / pb_ratio=1.30 / aq=2:1.00
Default : Yes
Forced : No
Color range : Limited
Color primaries : BT.709
Transfer characteristics : BT.709
Matrix coefficients : BT.709
Audio
ID : 2
Format : AC-3
Format/Info : Audio Coding 3
Format settings, Endianness : Big
Codec ID : A_AC3
Duration : 50 min 59 s
Bit rate mode : Constant
Bit rate : 192 kb/s
Channel(s) : 2 channels
Channel positions : Front: L R
Sampling rate : 48.0 kHz
Frame rate : 31.250 FPS (1536 SPF)
Bit depth : 16 bits
Compression mode : Lossy
Stream size : 70.0 MiB (9%)
Service kind : Complete Main
Default : Yes
Forced : No
-

Скриншоты:

       
- -

_________________

==============================
IGNOSCITO SAEPE ALTERI, NUNQUAM TIBI
Other forum [Profile] [PM]
Similar theme
Forum Topic Author Torrent Replies Last Post
./templates/default/images/folder_dl.gif Обучающая и развивающая литература, учебники Атанас Шишков - Первые Шаги в Радиоэлектронике [1986 г., DjVu, RUS] Anonymous
0 | 1

0 | 1878

4

2017-01-16 22:29
Anonymous Latest
Display posts from previous:    
Reply to topic

The time now is: Today 13:36

All times are GMT + 3 Hours



You cannot post new topics in this forum
You cannot reply to topics in this forum
You cannot edit your posts in this forum
You cannot delete your posts in this forum
You cannot vote in polls in this forum
You cannot attach files in this forum
You cannot download files in this forum