Today is a free download without charge Download

(Heavy Metal) Iron Maiden - Nights Of The Dead - Legacy Of The Beast - (2CD,Live In Mexico City) - 2020 [FLAC, image +.cue, lossless]

Reply to topic
 
Author
Message

sergej644 ®

Gender:

Longevity: 8 years 7 months

Posts: 661

Location: Klaipeda

Торрент-статистика

Post 07-Feb-2021 18:14

[Quote]

-Iron Maiden - Nights Of The Dead - Legacy Of The Beast - (2CD,Live In Mexico City)--
Год издания: 2020
Страна: UK
Жанр: Heavy Metal
Продолжительность: 01:40:56-Лейбл издания: Parlophome
Страна-выпуска диска: EU
Номер по каталогу: 0190295204716-Формат: FLAC
Битрейт аудио: Lossless
Тип рипа: image +.cue
Наличие сканов в содержимом раздачи: да
-

Трэклист

CD 1 - 00:50:44


01. Churchill's Speech (0:39)
02. Aces High (4:59)
03. Where Eagles Dare (5:13)
04. 2 Minutes to Midnight (5:55)
05. The Clansman (9:17)
06. The Trooper (4:03)
07. Revelations (6:33)
08. For the Greater Good of God (9:24)
09. The Wicker Man (4:44)

CD 2 - 00:50:13


01. Sign of the Cross (11:01)
02. Flight of Icarus (3:44)
03. Fear of the Dark (7:47)
04. The Number of the Beast (5:00)
05. Iron Maiden (5:31)
06. The Evil That Men Do (4:26)
07. Hallowed Be Thy Name (7:39)
08. Run to the Hills (5:08)
-

Лог создания рипа

CD 1

Код:
Exact Audio Copy V1.3 from 2. September 2016
EAC extraction logfile from 31. December 2020, 18:25
IRON MAIDEN / Nights of the Dead * Legacy of the Beast * Live in Mexico City - CD1
Used drive  : ASUS    DRW-24D5MT   Adapter: 1  ID: 0
Read mode               : Secure
Utilize accurate stream : Yes
Defeat audio cache      : Yes
Make use of C2 pointers : No
Read offset correction                      : 6
Overread into Lead-In and Lead-Out          : No
Fill up missing offset samples with silence : Yes
Delete leading and trailing silent blocks   : No
Null samples used in CRC calculations       : Yes
Used interface                              : Native Win32 interface for Win NT & 2000
Used output format              : User Defined Encoder
Selected bitrate                : 768 kBit/s
Quality                         : High
Add ID3 tag                     : No
Command line compressor         : C:\Program Files (x86)\Exact Audio Copy\FLAC\FLAC.EXE
Additional command line options : -6 -V -T "ARTIST=%artist%" -T "TITLE=%title%" -T "ALBUM=%albumtitle%" -T "DATE=%year%" -T "TRACKNUMBER=%tracknr%" -T "GENRE=%genre%" -T "COMMENT=%comment%" -T "BAND=%albuminterpret%" -T "ALBUMARTIST=%albuminterpret%" -T "COMPOSER=%composer%" %haslyrics%--tag-from-file=LYRICS="%lyricsfile%"%haslyrics% -T "DISCNUMBER=%cdnumber%" -T "TOTALDISCS=%totalcds%" -T "TOTALTRACKS=%numtracks%" %hascover%--picture="%coverfile%"%hascover% %source% -o %dest%
TOC of the extracted CD
     Track |   Start  |  Length  | Start sector | End sector
    ---------------------------------------------------------
        1  |  0:00.00 |  0:38.62 |         0    |     2911
        2  |  0:38.62 |  4:58.60 |      2912    |    25321
        3  |  5:37.47 |  5:12.52 |     25322    |    48773
        4  | 10:50.24 |  5:54.12 |     48774    |    75335
        5  | 16:44.36 |  9:16.62 |     75336    |   117097
        6  | 26:01.23 |  4:02.24 |    117098    |   135271
        7  | 30:03.47 |  6:32.21 |    135272    |   164692
        8  | 36:35.68 |  9:23.37 |    164693    |   206954
        9  | 45:59.30 |  4:43.47 |    206955    |   228226
Range status and errors
Selected range
     Filename E:\Música\EAC\Iron Maiden\IRON MAIDEN - Nights of the Dead x Legacy of the Beast x Live in Mexico City - CD1.wav
     Peak level 100.0 %
     Extraction speed 1.7 X
     Range quality 100.0 %
     Test CRC CA6AE99F
     Copy CRC CA6AE99F
     Copy OK
No errors occurred
AccurateRip summary
Track  1  not present in database
Track  2  not present in database
Track  3  not present in database
Track  4  not present in database
Track  5  not present in database
Track  6  not present in database
Track  7  not present in database
Track  8  not present in database
Track  9  not present in database
None of the tracks are present in the AccurateRip database
End of status report

CD 2

Код:
Exact Audio Copy V1.3 from 2. September 2016
EAC extraction logfile from 31. December 2020, 19:08
IRON MAIDEN / Nights of the Dead x Legacy of the Beast x Live in Mexico City - CD2
Used drive  : ASUS    DRW-24D5MT   Adapter: 1  ID: 0
Read mode               : Secure
Utilize accurate stream : Yes
Defeat audio cache      : Yes
Make use of C2 pointers : No
Read offset correction                      : 6
Overread into Lead-In and Lead-Out          : No
Fill up missing offset samples with silence : Yes
Delete leading and trailing silent blocks   : No
Null samples used in CRC calculations       : Yes
Used interface                              : Native Win32 interface for Win NT & 2000
Used output format              : User Defined Encoder
Selected bitrate                : 768 kBit/s
Quality                         : High
Add ID3 tag                     : No
Command line compressor         : C:\Program Files (x86)\Exact Audio Copy\FLAC\FLAC.EXE
Additional command line options : -6 -V -T "ARTIST=%artist%" -T "TITLE=%title%" -T "ALBUM=%albumtitle%" -T "DATE=%year%" -T "TRACKNUMBER=%tracknr%" -T "GENRE=%genre%" -T "COMMENT=%comment%" -T "BAND=%albuminterpret%" -T "ALBUMARTIST=%albuminterpret%" -T "COMPOSER=%composer%" %haslyrics%--tag-from-file=LYRICS="%lyricsfile%"%haslyrics% -T "DISCNUMBER=%cdnumber%" -T "TOTALDISCS=%totalcds%" -T "TOTALTRACKS=%numtracks%" %hascover%--picture="%coverfile%"%hascover% %source% -o %dest%
TOC of the extracted CD
     Track |   Start  |  Length  | Start sector | End sector
    ---------------------------------------------------------
        1  |  0:00.00 | 11:00.49 |         0    |    49548
        2  | 11:00.49 |  3:43.32 |     49549    |    66305
        3  | 14:44.06 |  7:46.71 |     66306    |   101326
        4  | 22:31.02 |  4:59.46 |    101327    |   123797
        5  | 27:30.48 |  5:30.74 |    123798    |   148621
        6  | 33:01.47 |  4:25.40 |    148622    |   168536
        7  | 37:27.12 |  7:38.11 |    168537    |   202897
        8  | 45:05.23 |  5:07.27 |    202898    |   225949
Range status and errors
Selected range
     Filename E:\Música\EAC\Iron Maiden\IRON MAIDEN - Nights of the Dead x Legacy of the Beast x Live in Mexico City - CD2.wav
     Peak level 100.0 %
     Extraction speed 1.7 X
     Range quality 100.0 %
     Test CRC 465BCFB9
     Copy CRC 465BCFB9
     Copy OK
No errors occurred
AccurateRip summary
Track  1  not present in database
Track  2  not present in database
Track  3  not present in database
Track  4  not present in database
Track  5  not present in database
Track  6  not present in database
Track  7  not present in database
Track  8  not present in database
None of the tracks are present in the AccurateRip database
End of status report

Индексная карта (non-compilant .cue)

CD 1

Код:
REM GENRE "Heavy Metal"
REM DATE 2020
REM DISCID 690BE309
REM COMMENT "ExactAudioCopy v1.3"
PERFORMER "IRON MAIDEN"
TITLE "Nights of the Dead * Legacy of the Beast * Live in Mexico City - CD1"
REM COMPOSER ""
FILE "IRON MAIDEN - Nights of the Dead x Legacy of the Beast x Live in Mexico City - CD1.flac" WAVE
  TRACK 01 AUDIO
    TITLE "Churchill's Speech"
    PERFORMER "IRON MAIDEN"
    REM COMPOSER ""
    INDEX 01 00:00:00
  TRACK 02 AUDIO
    TITLE "Aces High"
    PERFORMER "IRON MAIDEN"
    REM COMPOSER ""
    INDEX 01 00:38:62
  TRACK 03 AUDIO
    TITLE "Where Eagles Dare"
    PERFORMER "IRON MAIDEN"
    REM COMPOSER ""
    INDEX 00 05:37:45
    INDEX 01 05:37:47
  TRACK 04 AUDIO
    TITLE "2 Minutes to Midnight"
    PERFORMER "IRON MAIDEN"
    REM COMPOSER ""
    INDEX 00 10:50:22
    INDEX 01 10:50:24
  TRACK 05 AUDIO
    TITLE "The Clansman"
    PERFORMER "IRON MAIDEN"
    REM COMPOSER ""
    INDEX 00 16:44:34
    INDEX 01 16:44:36
  TRACK 06 AUDIO
    TITLE "The Trooper"
    PERFORMER "IRON MAIDEN"
    REM COMPOSER ""
    INDEX 00 26:01:21
    INDEX 01 26:01:23
  TRACK 07 AUDIO
    TITLE "Revelations"
    PERFORMER "IRON MAIDEN"
    REM COMPOSER ""
    INDEX 00 30:03:45
    INDEX 01 30:03:47
  TRACK 08 AUDIO
    TITLE "For the Greater Good of God"
    PERFORMER "IRON MAIDEN"
    REM COMPOSER ""
    INDEX 00 36:35:66
    INDEX 01 36:35:68
  TRACK 09 AUDIO
    TITLE "The Wicker Man"
    PERFORMER "IRON MAIDEN"
    REM COMPOSER ""
    INDEX 00 45:59:28
    INDEX 01 45:59:30

CD 2

Код:
REM GENRE "Heavy Metal"
REM DATE 2020
REM DISCID 760BC408
REM COMMENT "ExactAudioCopy v1.3"
PERFORMER "IRON MAIDEN"
TITLE "Nights of the Dead x Legacy of the Beast x Live in Mexico City - CD2"
REM COMPOSER ""
FILE "IRON MAIDEN - Nights of the Dead x Legacy of the Beast x Live in Mexico City - CD2.flac" WAVE
  TRACK 01 AUDIO
    TITLE "Sign of the Cross"
    PERFORMER "IRON MAIDEN"
    REM COMPOSER ""
    INDEX 01 00:00:00
  TRACK 02 AUDIO
    TITLE "Flight of Icarus"
    PERFORMER "IRON MAIDEN"
    REM COMPOSER ""
    INDEX 01 11:00:49
  TRACK 03 AUDIO
    TITLE "Fear of the Dark"
    PERFORMER "IRON MAIDEN"
    REM COMPOSER ""
    INDEX 01 14:44:06
  TRACK 04 AUDIO
    TITLE "The Number of the Beast"
    PERFORMER "IRON MAIDEN"
    REM COMPOSER ""
    INDEX 01 22:31:02
  TRACK 05 AUDIO
    TITLE "Iron Maiden"
    PERFORMER "IRON MAIDEN"
    REM COMPOSER ""
    INDEX 01 27:30:48
  TRACK 06 AUDIO
    TITLE "The Evil That Men Do"
    PERFORMER "IRON MAIDEN"
    REM COMPOSER ""
    INDEX 01 33:01:47
  TRACK 07 AUDIO
    TITLE "Hallowed Be Thy Name"
    PERFORMER "IRON MAIDEN"
    REM COMPOSER ""
    INDEX 01 37:27:12
  TRACK 08 AUDIO
    TITLE "Run to the Hills"
    PERFORMER "IRON MAIDEN"
    REM COMPOSER ""
    INDEX 01 45:05:23
-

для ознакомления:

--

_________________
У нас все платно: родиться, учиться, жениться, лечиться, умереть.
Бесплатно разрешено только работать.
Other forum [Profile] [PM]
Similar theme
Forum Topic Author Torrent Replies Last Post
./templates/default/images/folder_dl.gif Metal (Heavy Metal) [CD] Pokolgep - Totalis Metal - 1986/2012, FLAC (image+.cue), lossless Omen
0 | 1

0 | 1699

0

2014-12-25 23:00
Omen Latest
./templates/default/images/folder_dl.gif Metal (Heavy Metal) [CD] Accept - Classics, Rocks\'n\'Ballads (Compilation, 1983 - 1996) - 2000, FLAC (image+.cue), lossless Omen
1 | 0

0 | 1448

11

2015-01-21 09:04
Omen Latest
Display posts from previous:    
Reply to topic

The time now is: Today 01:03

All times are GMT + 3 Hours



You cannot post new topics in this forum
You cannot reply to topics in this forum
You cannot edit your posts in this forum
You cannot delete your posts in this forum
You cannot vote in polls in this forum
You cannot attach files in this forum
You cannot download files in this forum