Сегодня идет свободное скачивание без начисления Download

(Swing, Electroswing) G-Swing - G-Swing - 2007, FLAC (image+.cue), lossless

Ответить на тему
 
Автор
Сообщение

Koralina ®

Стаж: 7 лет 3 месяца

Сообщений: 1032

Откуда: Lithuania

Торрент-статистика

Пост 06-Янв-2012 01:47

[Цитировать]

G-Swing - G-Swing Жанр: Swing, Electroswing
Год выпуска диска: 2007
Производитель диска: Russia
Аудио кодек: FLAC
Тип рипа: image+.cue
Битрейт аудио: lossless
Продолжительность: 60:47
Трэклист:1. Cement Mixer feat. Jimi Bazooka
2. Sing Sing Sing feat. Ania Chow
3. Ring Dem Bells feat. Major Melon
4. Busy Line feat. Major Melon
5. I’m Crazy ‘bout My Baby feat. Cotton Kids
6. Don’t Be That Way feat. Itchy Mango
7. Calos feat. Rossy De Palma
8. Run Joe feat. Lindstorm
9. Diga Diga Doo feat. DJ Brame
10. Goin’ Nuts feat. Diamond Legs
11. Figs and Dates feat. Berry Dept
12. Twenty Long Years feat. Foxtrot Parader
13. Promised Land feat. Little Shoe Polisher
14. Caravan feat. Lindstorm
15. Heartbreaker feat. Major Melon
16. The Answer feat. Marcovitch
17. C’est a le vrai Bonheur(esto es felicidad) feat. Ludovic Allen
18. Medley

Отчёт EAC

Exact Audio Copy V0.99 prebeta 5 from 4. May 2009
Отчёт EAC об извлечении, выполненном 7. августа 2009, 15:51
G-Swing / G-Swing
Дисковод: Optiarc DVD+-RW AD-7640A Adapter: 1 ID: 0
Режим чтения : Достоверность
Использование точного потока : Да
Отключение кэша аудио : Да
Использование указателей C2 : Нет
Коррекция смещения при чтении : 6
Способность читать области Lead-in и Lead-out : Нет
Заполнение пропущенных сэмплов тишиной : Да
Удаление блоков с тишиной в начале и конце : Нет
При вычислениях CRC использовались нулевые сэмплы : Да
Интерфейс : Установленный внешний ASPI-интерфейс
Выходной формат : Пользовательский кодировщик
Выбранный битрейт : 768 kBit/s
Качество : Высокий
Добавление ID3-тэга : Нет
Утилита сжатия : C:\Program Files\Exact Audio Copy\FLAC\FLAC.EXE
Дополнительные параметры : -6 -V -T "ARTIST=%a" -T "TITLE=%t" -T "ALBUM=%g" -T "DATE=%y" -T "TRACKNUMBER=%n" -T "GENRE=%m" -T "COMMENT=%e" %s -o %d
TOC извлечённого CD
Трек | Старт | Длительность | Начальный сектор | Конечный сектор
---------------------------------------------------------------------
1 | 0:00.00 | 3:07.23 | 0 | 14047
2 | 3:07.23 | 3:09.31 | 14048 | 28253
3 | 6:16.54 | 3:08.42 | 28254 | 42395
4 | 9:25.21 | 3:30.01 | 42396 | 58146
5 | 12:55.22 | 3:17.51 | 58147 | 72972
6 | 16:12.73 | 3:06.26 | 72973 | 86948
7 | 19:19.24 | 3:19.20 | 86949 | 101893
8 | 22:38.44 | 3:09.07 | 101894 | 116075
9 | 25:47.51 | 3:01.39 | 116076 | 129689
10 | 28:49.15 | 4:48.14 | 129690 | 151303
11 | 33:37.29 | 3:29.29 | 151304 | 167007
12 | 37:06.58 | 2:08.61 | 167008 | 176668
13 | 39:15.44 | 3:52.58 | 176669 | 194126
14 | 43:08.27 | 3:41.15 | 194127 | 210716
15 | 46:49.42 | 4:16.00 | 210717 | 229916
16 | 51:05.42 | 3:10.05 | 229917 | 244171
17 | 54:15.47 | 3:33.03 | 244172 | 260149
18 | 57:48.50 | 2:57.66 | 260150 | 273490
Характеристики диапазона извлечения и сообщения об ошибках
Выбранный диапазон
Имя файла C:\Users\Валерий\Документы\G-Swing - G-Swing.wav
Пиковый уровень 100.0 %
Качество диапазона 99.9 %
CRC копии D19C5219
Копирование... OK
Ошибок не произошло
AccurateRip: сводка
Трек 1 нет в базе данных
Трек 2 нет в базе данных
Трек 3 нет в базе данных
Трек 4 нет в базе данных
Трек 5 нет в базе данных
Трек 6 нет в базе данных
Трек 7 нет в базе данных
Трек 8 нет в базе данных
Трек 9 нет в базе данных
Трек 10 нет в базе данных
Трек 11 нет в базе данных
Трек 12 нет в базе данных
Трек 13 нет в базе данных
Трек 14 нет в базе данных
Трек 15 нет в базе данных
Трек 16 нет в базе данных
Трек 17 нет в базе данных
Трек 18 нет в базе данных
Ни одного трека нет в базе AccurateRip
Конец отчёта
В альбоме находятся абсолютные хиты, заставляющие двигаться всеми руками и ногами, радостно скакать каждого свингдэнсера. «Diga Diga Doo», «Sing Sing Sing», «Heartbreaker», «Caravan», «Ring Dem Bells» - эталоны прекрасного вкуса и гарантия отличного настроения.

_________________
Вне форума [Профиль] [ЛС]
Показать сообщения:    
Ответить на тему

Текущее время: Сегодня 12:58

Часовой пояс: GMT + 3



Вы не можете начинать темы
Вы не можете отвечать на сообщения
Вы не можете редактировать свои сообщения
Вы не можете удалять свои сообщения
Вы не можете голосовать в опросах
Вы не можете прикреплять файлы к сообщениям
Вы не можете скачивать файлы