Today is a free download without charge Download

(Power Metall) Эпидемия - Дорога домой - 2010, ALAC (tracks), lossless

Reply to topic
 
Author
Message

Nugeiro ®

Gender:

Longevity: 9 years 2 months

Posts: 1981

Location: Украина, Шостка

Торрент-статистика

Post 08-Jan-2012 13:35

[Quote]

Эпидемия - Дорога домой
Страна: Россия
Жанр: Power Metall
Год выпуска: 2010
Формат: ALAC (tracks)
Битрейт аудио: lossless
Продолжительность: 01:12:43
Трэклист:
01. Последний рассвет (4:41)
02. Время выбора (4:00)
03. Беззвездная ночь (6:14)
04. В дюйме от паденья (5:33)
05. Дорога домой (8:46)
06. Страна забвения (3:55)
07. Сумеречный ангел (5:38)
08. В этом сне (6:26)
09. Не остановить мечту (5:43)
10. Взошла луна (4:34)
11. Встречный ветер (5:41)
12. Феникс (6:22)
13. Вернись (5:16)

EAC

Код:
Exact Audio Copy V1.0 beta 1 from 15. November 2010
EAC extraction logfile from 8. January 2011, 1:02
Эпидемия / Дорога Домой
Used drive  : HL-DT-STDVDRAM_GH15N   Adapter: 3  ID: 1
Read mode               : Secure
Utilize accurate stream : Yes
Defeat audio cache      : Yes
Make use of C2 pointers : No
Read offset correction                      : 667
Overread into Lead-In and Lead-Out          : No
Fill up missing offset samples with silence : Yes
Delete leading and trailing silent blocks   : No
Null samples used in CRC calculations       : Yes
Used interface                              : Native Win32 interface for Win NT & 2000
Used output format              : User Defined Encoder
Selected bitrate                : 1024 kBit/s
Quality                         : High
Add ID3 tag                     : No
Command line compressor         : C:\Program Files\Exact Audio Copy\Flac\flac.exe
Additional command line options :  -8 -V %s
TOC of the extracted CD
     Track |   Start  |  Length  | Start sector | End sector
    ---------------------------------------------------------
        1  |  0:00.00 |  4:40.66 |         0    |    21065
        2  |  4:40.66 |  4:00.07 |     21066    |    39072
        3  |  8:40.73 |  6:14.37 |     39073    |    67159
        4  | 14:55.35 |  5:33.24 |     67160    |    92158
        5  | 20:28.59 |  8:45.50 |     92159    |   131583
        6  | 29:14.34 |  3:54.74 |    131584    |   149207
        7  | 33:09.33 |  5:37.46 |    149208    |   174528
        8  | 38:47.04 |  6:26.18 |    174529    |   203496
        9  | 45:13.22 |  5:42.43 |    203497    |   229189
       10  | 50:55.65 |  4:34.08 |    229190    |   249747
       11  | 55:29.73 |  5:41.13 |    249748    |   275335
       12  | 61:11.11 |  6:21.67 |    275336    |   303977
       13  | 67:33.03 |  5:16.14 |    303978    |   327691
Range status and errors
Selected range
     Filename C:\Downloads\Эпидемия - Дорога Домой.wav
     Peak level 100.0 %
     Extraction speed 0.5 X
     Range quality 100.0 %
     Copy CRC 9FA515A6
     Copy OK
No errors occurred
AccurateRip summary
Track  1  accurately ripped (confidence 5)  [F8FFA118]
Track  2  accurately ripped (confidence 5)  [B0F58616]
Track  3  accurately ripped (confidence 5)  [ECEBCC40]
Track  4  accurately ripped (confidence 5)  [67C53EE3]
Track  5  accurately ripped (confidence 5)  [98FE2EB0]
Track  6  accurately ripped (confidence 5)  [06FD24DF]
Track  7  accurately ripped (confidence 5)  [24E891E5]
Track  8  accurately ripped (confidence 6)  [671D867B]
Track  9  accurately ripped (confidence 5)  [02C65A8A]
Track 10  accurately ripped (confidence 5)  [34965EBB]
Track 11  accurately ripped (confidence 5)  [8ED4EB92]
Track 12  accurately ripped (confidence 5)  [15ACADAA]
Track 13  accurately ripped (confidence 5)  [58A65068]
All tracks accurately ripped
End of status report

_________________
Other forum [Profile] [PM]
Similar theme
Forum Topic Author Torrent Replies Last Post
./templates/default/images/folder_dl.gif Metal (Power Metal) ShadowQuest - Gallows Of Eden - 2020 [FLAC, image +.cue, lossless] sergej644
1 | 0

0 | 187

1

2020-03-26 23:51
sergej644 Latest
Display posts from previous:    
Reply to topic

The time now is: Today 01:45

All times are GMT + 3 Hours



You cannot post new topics in this forum
You cannot reply to topics in this forum
You cannot edit your posts in this forum
You cannot delete your posts in this forum
You cannot vote in polls in this forum
You cannot attach files in this forum
You cannot download files in this forum