Today is a free download without charge Download

(Tango / World) EL TANGO pasion y emocion - 2008, APE (tracks), lossless

Reply to topic
 
Author
Message

Koralina ®

Longevity: 8 years

Posts: 994

Location: Lithuania

Торрент-статистика

Post 29-Jan-2012 01:02

[Quote]

EL TANGO pasion y emocion Жанр: Tango / World
Год выпуска диска: 2008
Производитель диска: Нидерланды
Аудио кодек: APE
Тип рипа: tracks
Битрейт аудио: lossless
Продолжительность: 10 дисков по ~60мин.

Трэклист:
CD 1
1. Tinta Roja (Piana/Catillo) Anibal Troilo Y Su Orquesta Tipica 2:59
2. Del Tiempo Guapo (Francisco Fiorentiomo/Ferrere) Anibal Troilo Y Su Orquesta Tipica 2:24
3. Barrio De Tango (Anibal Troilo/Manzi) Anibal Troilo Y Su Orquesta Tipica 3:14
4. Yapeyu (Fuster Jose Dionisio) Juan D‘Arienzo Y Su Orquesta Típica 2:29
5. Felicia (Keine Kunstlerinformation 3:03
6. Mucho mucho (Miguel Bucino/J. Cao) Juan D‘Arienzo Y Su Orquesta Típica 2:51
7. Vieja Recova (Enrique Cadícamo/Rodolfo Sciammarella) Osvaldo Pugliese 2:56
8. Pasional (Mario Soto/Jorge Caldara) Osvaldo Pugliese 3:29
9. Chiqué (Ricardo Luis Brignolo/Ricardo Luis Brignolo) Osvaldo Pugliese 3:15
10. La cumparsita (Gerardo Matos Rodríguez/Gerardo Matos Rodríguez)
Angel d‘Agostino Y Su Orquesta Tipica 3:39
11. Cascabelito (Juan Andrés Caruso/José Bohr) Angel d‘Agostino Y Su Orquesta Tipica 2:55
12. Muchacho (Celedonio Flores/Edgardo Donato) Angel d‘Agostino Y Su Orquesta Tipica 3:22
13. Leyenda gaucha (Juan Santini) Domingo Federico Y Su Orquesta Típica 3:05
14. Saludos (F. Federico/D. Federico) Domingo Federico Y Su Orquesta Típica 2:33
15. Yuyo verde (Homero Expósito/Domingo Federico) Domingo Federico Y Su Orquesta Típica 2:41
16. Inspiración (Luis Rubistein/Peregrino Paulos) Adolfo Carabelli Y Su Orquesta Tipica 3:22
17. Volvio la princesa (Jerónimo Sureda/Antonio Sureda) Orquesta Tipica Victor 2:43
18. Viento norte (Juan Carlos Suncho) Orquesta Tipica Victor 2:46
19. Pampa (Francisco Pracánico) Orquesta Porteña 2:23
20. Que „sapa“ Señor?! (Enrique Santos Discépolo/Enrique Santos Discépolo) Orquesta Porteña 2:49
21. Melodia Oriental (Enrique Cadícamo/Roberto Zerrillo) Orquesta Roberto Zerrillo 2:31
Total Time 61:40
CD 2
1. Racing Club (Vincente Greco) Carlos Di Sarli Y Su Orquesta 2:49
2. Nobleza de Arrabal (Francisco Canaro) Carlos Di Sarli Y Su Orquesta 2:11
3. Charlemos (Luis Rubinstein/Luis Rubinstein) Carlos Di Sarli Y Su Orquesta 2:34
4. Rodriguez Peña (Juan Velich/Vicente Greco) Francisco Canaro Y Su Orquestra Tipica 2:56
5. Mano A Mano
(Celedonio Flores/Carlos Gardel/José Razzano) Francisco Canaro Y Su Orquestra Tipica 3:13
6. Amour et printemps [Amor y primavera]
(Emil Waldteufel) Francisco Canaro Y Su Orquestra Tipica 3:18
7. Sepeñoporipitapa
(Carlos Bahr/Fulvio Salamanca/Juan D‘Arienzo) Juan D‘Arienzo Y Su Orquesta Típica 2:58
8. Fatal y tanguera (A. Dominguez/Aldo Queirolo) Juan D‘Arienzo Y Su Orquesta Típica 2:43
9. El tigre millan (Francisco Canaro/Francisco Canaro) Juan Andrés Caruso/José Bohr 3:19
10. El Huracan
(Nolo López/Edgardo Donato/Osvaldo Donato) Edgardo Donato Y Sus Muchachos 2:52
11. Campo Afuera (Homero Manzi/Rodolfo Biagi) Edgardo Donato Y Sus Muchachos 2:32
12. La Cumparsita
(Gerardo Matos Rodríguez/Gerardo Matos Rodríguez) Edgardo Donato Y Sus Muchachos 2:17
13. Felicia (Carlos Mauricio Pacheco/Enrique Saborido) Adolfo Carabelli Y Su Orquesta Tipica 2:36
14. Volvé (Luis Bayón Herrera/Edgardo Donato) Adolfo Carabelli Y Su Orquesta Tipica 2:37
15. Cuatro palábras (Luis Rubinstein) Adolfo Carabelli Y Su Orquesta Tipica 2:24
16. Yira Yira
(Enrique Santos Discepolo/Enrique Santos Discepolo) Anibal Troilo Y Su Orquesta Tipica 3:13
17. Pablo (José Martinez) Anibal Troilo Y Su Orquesta Tipica 2:33
18. Quejas De Bandoneón (Juan de Dios Filiberto) Anibal Troilo Y Su Orquesta Tipica 2:38
19. Melenita De Oro (Samuel Linnig/Carlos Vicente Geroni Flores) Orquesta Carlos Flores 2:57
20. Muchachita Callejera (Salvador Granata) Orquesta Carlos Flores 2:58
21. Una vez (Cátulo Castillo/Osvaldo Pugliese) Orquesta Tipica Victor 3:21
Total Time 59:10
CD 3
1. Qué Hace, Qué Hace
(Jesús Fernández Blanco/José Di Clemente) Edgardo Donato Y Sus Muchachos 2:23
2. Para Pue
(José María Contursi/Domingo Varela Conte/Oscar Amoroso) Edgardo Donato Y Sus Muchachos 2:33
3. Ella Es Asi (M. Carretero/L. Martino) Edgardo Donato Y Sus Muchachos 2:35
4. Sabado Ingles (Juan Máglio) Juan D‘Arienzo Y Su Orquesta Típica 3:08
5. Joaquina (Juan Bergamino) Juan D‘Arienzo Y Su Orquesta Típica 3:02
6. Mentia (J. C. Casaretto) Juan D‘Arienzo Y Su Orquesta Típica 2:21
7. Quejas de bandoneon (J. de Dios Filiberto) Francisco Canaro Y Su Orquestra Tipica 2:51
8. La Cumparsita
(Gerardo Matos Rodríguez/Gerardo Matos Rodríguez) Francisco Canaro Y Su Orquestra Tipica 3:10
9. La Puñalada (Celedonio Flores/Pintín Castellanos) Francisco Canaro Y Su Orquestra Tipica 2:17
10. Griseta (José González Castillo/Enrique Delfino) Carlos Di Sarli Y Su Orquesta 2:59
11. Cascabelito (Juan Andrés Caruso/José Bohr) Carlos Di Sarli Y Su Orquesta 2:35
12. La torcasita (José Martinez) Carlos Di Sarli Y Su Orquesta 2:39
13. Pa‘ que laglimear (S. Piana) Adolfo Carabelli Y Su Orquesta Tipica 2:37
14. Por el camino (José González Castillo/José Bohr) Orquesta Tipica Victor 2:37
15. Lo vien tus ojos (Emilio Pistocho/A. I. Colombin) Orquesta Tipica Victor 3:16
16. Derecho viejo (Andrés Baldesari/Eduardo Arolas) Orquesta Osvaldo Fresedo 2:29
17. Nueve de Julio (José, L. Padula) Orquesta Hector Stamponi 2:45
18. El Huracan (Edgardo Donato/Osvaldo Donato/Edgardo Donato/Osvaldo Donato)
Sexteto Los Mendocinos, dir.: Francisco Lauro 3:20
19. Tinieblas (Elvino Vardaro/J. M. Velich) Orquesta Carlos Marcucci 2:58
20. Si supieras (Carlos Marcucci/C. Meaños) Orquesta Carlos Marcucci 3:16
21. El motivo (Juan Carlos Cobián) Orquesta Juan Carlos Cobián 2:49
Total Time 58:50
CD 4
1. La Cumparsita
(Gerardo Matos Rodríguez/Gerardo Matos Rodríguez) Anibal Troilo Y Su Orquesta Tipica 2:37
2. Inspiracion (Luis Rubistein/Peregrino Paulos) Anibal Troilo Y Su Orquesta Tipica 3:11
3. Mi noche triste (P. Contursi/S. Castriota) Anibal Troilo Y Su Orquesta Tipica 3:22
4. Organito de la tarde (Cátulo Castillo) Carlos Di Sarli Y Su Orquesta 2:43
5. Junto a tu corazon
(José María Contursi/Hector Stamponi/Enrique Mario Francini) Carlos Di Sarli Y Su Orquesta 3:01
6. Don José Maria (Rosendo Mendizábal) Carlos Di Sarli Y Su Orquesta 2:33
7. La puñalada (Celedonio Flores/Pintín Castellanos) Juan D‘Arienzo Y Su Orquesta Típica 3:08
8. Jueves (R. Rossi, U. Tranzo) Juan D‘Arienzo Y Su Orquesta Típica 2:22
9. Paciencia (F. Gorrino,/Juan d‘Arienzo) Juan D‘Arienzo Y Su Orquesta Típica 2:15
10. El entrerriano (Rosendo A. Mendizábal) Francisco Canaro Y Su Orquestra Tipica 3:02
11. El lloron (A. Radrizzani/E. Cadícamo) Francisco Canaro Y Su Orquestra Tipica 2:20
12. Vibraciones del alma (Francisco Canaro) Francisco Canaro Y Su Orquestra Tipica 3:19
13. Esta noche me emborracho (Enrique S. Discépolo) Orquesta Tipica Victor 2:59
14. Fanfarron (Luis N. Visca) Orquesta Tipica Victor 3:07
15. Huella buey (Alberto N. Laporte) Orquesta Tipica Victor 3:07
16. Cuando llora la milonga (J. de Diás Filiberto/C. Peñaloza) Alfredo de Angelis 2:45
17. Re fa si (Enrique Delfino) Alfredo de Angelis 2:40
18. Caminito (J. de Dios Filiberto/C. Peñaloza) Alfredo de Angelis 2:55
19. Mentira (Francisco Pracánico/C. E. Flores) Orquesta Adolfo Carabelli 2:53
20. Alma (Federico Scorticati/J. Sarcione) Orquesta Adolfo Carabelli 2:52
21. Sur (Anibal Troilo/Homero Manzi) Orquesta Anibal Troilo 3:31
Total Time 60:52
CD 5
1. Tango argentino (A. Bigeschi/J. Maglio) Domingo Federico Y Su Orquesta Típica 3:11
2. Al compas del corazon (D. Federico/H. A. Expósito) Domingo Federico Y Su Orquesta Típica 2:47
3. Te espero en Rodriguez Peña (H. Varela, C. Waiss) Domingo Federico Y Su Orquesta Típica 3:28
4. Julian (Edgardo Donato, José Panizza) Orquesta Tipica Victor 3:00
5. Botija linda (G. H. Matos Rodríguez) Orquesta Tipica Victor 2:57
6. Malquerida (Luis Petrucelli) Orquesta Tipica Victor 2:48
7. Asi es el tango (Edgardo Donato, Homero Manzi) Orquesta Edgardo Donato 2:31
8. El chamuyo (Francisco Canaro) Orquesta Edgardo Donato 2:29
9. Vieja amiga (Pedro Laurenz/J. M. Contursi) Orquesta Pedro Laurenz 2:16
10. Bandoneon arrabalero (P. Contursi/J. B. Deambroggio) Angel Vargas 2:59
11. Tiene razon amigazo (E. Dizeo/A. Calabró) Angel Vargas 2:35
12. Doblando el codo (M. Mañueco/E. del Piano) Angel Vargas 2:38
13. Inspiracion (Luis Rubistein/Peregrino Paulos) Francisco Canaro Y Su Orquestra Tipica 2:36
14. Sentimiento Gaucho
(Juan Andrés Caruso/Rafael Canaro/Francisco Canaro) Francisco Canaro Y Su Orquestra Tipica 2:37
15. Yo no se que me han hecho tus ojos
(Francisco Canaro/Francisco Canaro) Francisco Canaro Y Su Orquestra Tipica 3:15
16. La Cumparsita
(Gerardo Matos Rodríguez/Gerardo Matos Rodríguez) Juan D‘Arienzo Y Su Orquesta Típica 2:29
17. Florida (Carlos Mauricio Pacheco/Enrique Saborido) Juan D‘Arienzo Y Su Orquesta Típica 2:45
18. Felicia (Carlos Mauricio Pacheco/Enrique Saborido) Juan D‘Arienzo Y Su Orquesta Típica 3:20
19. Tristeza marine (Horacio Sanguinetti/José Dames/Roberto Flores) Carlos Di Sarli Y Su Orquesta 2:58
20. Vea vea (Roberto Firpo) Carlos Di Sarli Y Su Orquesta 3:16
21. Siete palabras (Juan Maglio/Prudencio Aragón) Carlos Di Sarli Y Su Orquesta 2:49
Total Time 59:53
CD 6
1. El Choclo (A. Villoldo/E. S. Discépolo/M. Catán) Alfredo de Angelis 2:29
2. Rayito (A. Lacueva) Alfredo de Angelis 2:57
3. Milonguita (E. P. Delfino/Samuel Linning) Alfredo de Angelis 2:58
4. Noches de locura (C. Bahr, B. M. Sucher) Angel Vargas 3:14
5. Viejo coche (C. E. Flores, E. Pereyra) Angel Vargas 3:15
6. El porteñito (C. Pesce/A. Polito/A. Villoldo) Angel D‘Agostino Y Su Orquesta Tipica 2:29
7. Antiguo reloj de cobre (E. Marvezzi) Osvaldo Pugliese 2:33
8. La Yumba (Osvaldo Pugliese) Orquesta Francini-Pontier 3:05
9. Corrientes y Esmeralda (F. Pracánico/C. E. Flores) Osvaldo Pugliese 2:48
10. Milongueando en el 40 (Armado Pontier) Anibal Troilo Y Su Orquesta Tipica 2:32
11. Toda mi vida (J. M. Contursi/A. Troilo) Anibal Troilo Y Su Orquesta Tipica 2:56
12. Uno (E. S. Discepolo/M. Mores) Anibal Troilo Y Su Orquesta Tipica 3:33
13. Barrio de tango (H. Manzi/Anibal Troilo) Angel D‘Agostino Y Su Orquesta Tipica 3:01
14. La Sonambula (Pascual Cardarópolis) Angel D‘Agostino Y Su Orquesta Tipica 2:50
15. La Chiflada (J. C. Bazán) Angel D‘Agostino Y Su Orquesta Tipica 2:16
16. A Bailar (Domingo Federico/Bahr) Anibal Troilo Y Su Orquesta Tipica 2:43
17. Cafe De Los Angelitos (Razzano/Castillo) Anibal Troilo Y Su Orquesta Tipica 2:38
18. Desde el alma (R. Melo/V. Pima, Vélez) Francisco Canaro Y Su Orquestra Tipica 2:54
19. Nunca mas (Oscar Lomuto/F. Lomuto) Juan D‘Arienzo Y Su Orquesta Típica 2:15
20. Cicatrices (E. P. Maroni/ A. R. Avilés) Juan D‘Arienzo Y Su Orquesta Típica 2:30
21. Tabu (R. Thompson/T. Rossi) Juan D‘Arienzo Y Su Orquesta Típica 2:27
Total Time 58:33
CD 7
1. Comme il faut (Eduardo Arolas) Carlos Di Sarli Y Su Orquesta Típica 2:35
2. El amanecer (Roberto Firpo) Carlos Di Sarli Y Su Orquesta 2:31
3. El once (E. Fresedo/O. Fresedo) Carlos Di Sarli Y Su Orquesta 2:52
4. El Choclo
(C. Marambio Catán/E. S. Discépolo/A. Villoldo) Angel D‘Agostino Y Su Orquesta Tipica 3:09
5. Pero yo se (Azucena Maizani) Angel D‘Agostino Y Su Orquesta Tipica 2:45
6. Adios Arrabal (C. C. Lenzi/J. Bauer) Angel D‘Agostino Y Su Orquesta Tipica 3:09
7. Riendo (R. Scimarella/M. Maurano,/A. Malerba) Francisco Lomuto y su Orquesta Tipica 2:37
8. El barco Maria (H. Sanguinetti/C. Vivan) Francisco Lomuto y su Orquesta Tipica 2:40
9. No cantes ese tango
(Rodolfo Arrigorriaga/Francisco Lomuto) Francisco Lomuto y su Orquesta Tipica 3:12
10. Malena (H. Manzi/Lucio Demar) Anibal Troilo Y Su Orquesta Tipica 2:58
11. Tres amigos (Enrique Cadicamo) Anibal Troilo Y Su Orquesta Tipica 3:18
12. El entrerriano (R. Mendizabal) Anibal Troilo Y Su Orquesta Tipica 2:38
13. La abandoné y no sabía (José Canet) Osvaldo Pugliese 3:10
14. Canaro en París (A. Scarpino/J. Scarpino/J. Caldarella) Osvaldo Pugliese 2:55
15. ¿Se lustra señor? (E. Alessio Marvil/Eduardo del Piano) Angel Vargas 3:17
16. La Cumparsita (Gerardo Matos Rodríguez/Gerardo Matos Rodríguez) Orquesta Ricardo Tanturi 2:46
17. El reloj (R. Cantora) Juan D‘Arienzo Y Su Orquesta Típica 2:49
18. Don Juan (R. Podesta/E. Ponzio) Carlos Di Sarli Y Su Orquesta Típica 2:52
19. Adios Pampa mia (F. Canaro, M. Mores, I. Pelay) Francisco Canaro Y Su Orquestra Tipica 2:51
20. A Media Luz (E. Donato/C. C. Lenzi) Francisco Canaro Y Su Orquestra Tipica 3:09
21. La ultima copa (F. Canaro/J. Caruso) Francisco Canaro Y Su Orquestra Tipica 2:52
Total Time 61:14
CD 8
1. Esta noche de luna (H. Marcó, J. García, G. Gómez) Osvaldo Pugliese 3:45
2. La Cachila (E. Arolas) Osvaldo Pugliese 2:35
3. La cieguita (Kepler/Lais/Ramuncho) Osvaldo Pugliese 2:53
4. Corazon de oro (Francisco Canaro) Francisco Canaro Y Su Orquestra 3:18
5. Madreselva (F. Canaro, L. C. Amadori) Francisco Canaro Y Su Orquestra Tipica 2:55
6. El Choclo (Villoldo/E. S. Discépolo/C. Marambio Catán) Francisco Canaro Y Su Orquestra Tipica 2:33
7. La Cumparsita
(Gerardo Matos Rodríguez/Gerardo Matos Rodríguez) Juan D‘Arienzo Y Su Orquesta Típica 3:44
8. Rodrigues Peña (Juan Velich/Vicente Greco) Carlos Di Sarli Y Su Orquesta Típica 3:23
9. El Jaguël (Carlos Posadas) Carlos Di Sarli Y Su Orquesta Típica 2:53
10. La ultima cita (F. Garcia Giménez, A. Bardi) Angel D‘Agostino Y Su Orquesta Tipica 2:36
11. Rondando tu esquina (E. Cadicamo/Charlo) Angel D‘Agostino Y Su Orquesta Tipica 2:53
12. Destillos (J. Caruso/Francisco Canaro) Angel D‘Agostino Y Su Orquesta Tipica 2:38
13. El amanecer (Roberto Firpo) Domingo Federico Y Su Orquesta Típica 2:36
14. Senda florida (R. Rossi/E. Cárdenas) Domingo Federico Y Su Orquesta Típica 2:52
15. Honda tristeza (Roberto Firpo) Domingo Federico Y Su Orquesta Típica 3:11
16. A Media Luz (E. Donato, C. C. Lenzi) Los Ases del Tango 2:38
17. Hombrecito (Ramón Collazo/&L. A. Cevallos) Orquesta Tipica Victor 2:31
18. Una noche en la calle (R. Marceau, E. Nervo) Orquesta Tipica Victor 2:44
19. San termo (I. Pelay, Gerardo H. Matos Rodriguez) Francisco Lomuto y su Orquesta Tipica 3:06
20. Parque Patricios (Francisco Laino, Antonio Radicci) Francisco Lomuto y su Orquesta Tipica 2:21
21. Tormenta (E. S. Discepolo) Francisco Lomuto y su Orquesta Tipica 2:31
Total Time 60:45
CD 9
1. Don Horacio (Pintin Castillanos) Juan D‘Arienzo Y Su Orquesta Típica 2:30
2. No te engañes, corazon (Rodolfo Sciaramella) Juan D‘Arienzo Y Su Orquesta Típica 2:31
3. Esclavas blancas (Horacio Petorossi) Juan D‘Arienzo Y Su Orquesta Típica 2:58
4. Nueve puntos (Francisco Canaro) Carlos Di Sarli Y Su Orquesta Típica 3:17
5. Viviani (Roberto Firpo) Carlos Di Sarli Y Su Orquesta Típica 3:01
6. Germain (Lopez Buchardo) Carlos Di Sarli Y Su Orquesta Típica 3:14
7. A Media Luz (Carlos C. Lenzi/Edgardo Donato) Edgardo Donato Y Sus Muchachos 2:32
8. Mis pesares (C. Pesce/Edgardo Donato) Edgardo Donato Y Sus Muchachos 2:29
9. Soy mendigo (Adolfo A. Vedani/O. Donato) Edgardo Donato Y Sus Muchachos 2:31
10. El huerfano (A. Aieta/F. Garcia Jiménez) Domingo Federico Y Su Orquesta Típica 2:56
11. Charlemos (Luis Rubistein) Domingo Federico Y Su Orquesta Típica 3:04
12. Y todavia te quiero (A. Aznar/L. Leocata) Domingo Federico Y Su Orquesta Típica 3:10
13. Se te dio vuelta la taba (Juan J. Otávares/Fioravanti Santoro) Orquesta Francisco Lomuto 2:37
14. Caminito (Juan de Dios Filiberto/C. Peñaloza) Orquesta Francisco Lomuto 3:14
15. Cuando llora la milonga (Juan de Dios Filiberto) Orquesta Francisco Lomuto 2:46
16. Callecita de mi novia (Antonio Botta/Francisco Lomuto) Francisco Lomuto y su Orquesta Tipica 2:40
17. Soñe con un amor (J. Fernandez Blanco, Zayra Canisoba) Francisco Lomuto y su Orquesta Tipica 2:40
18. Caricias (Alfredo Bigeschi/Juan Marti) Francisco Lomuto y su Orquesta Tipica 2:48
19. ¿Milonga, porque lloras? (Enrique Cadícamo) Orquesta Tipica Victor 2:47
20. El mortero del globito (Miguel Padula/Francisco G. Jiménez) Orquesta Tipica Victor 2:42
21. El marne (Eduardo Arolas) Orquesta Tipica Victor 2:44
Total Time 59:23
CD 10
1. Chapaleando barro (Celedonio E. Flores, Castillo) Edgardo Donato Y Sus Muchachos 2:32
2. Sombra gaucha (Alberto Pellegrini/Hector Baldi) Edgardo Donato Y Sus Muchachos 2:28
3. Lágrimas (Maruja Pacheco Huergo/Edgardo Donato) Edgardo Donato Y Sus Muchachos 2:50
4. Barajando (Nicolas Vaccaro/Eduardo Escariz Méndes) Juan D‘Arienzo Y Su Orquesta Típica 2:55
5. Farabute (Antonio Casciani/Joaquin Berreiro) Juan D‘Arienzo Y Su Orquesta Típica 2:31
6. Amarga sospecha (Carlos Bahr/Fulvio Salamanca) Juan D‘Arienzo Y Su Orquesta Típica 2:45
7. La Cumparsita (Gerardo Matos Rodríguez/Gerardo Matos Rodríguez) Orquesta Tipica Victor 2:33
8. Miño bien (J. A. Collazo) Orquesta Tipica Victor 2:44
9. Amor y celo (A. F. Roldan, M. Padula) Orquesta Tipica Victor 2:27
10. Si soy as (Antonio Botta/Francisco Lomuto) Francisco Lomuto y su Orquesta Tipica 3:16
11. No hay tierra como la mia (E. Cadicamo/Charlo) Francisco Lomuto y su Orquesta Tipica 2:32
12. Mar de fondo (O. Napolitano/D. H. Alvarez) Francisco Lomuto y su Orquesta Tipica 2:43
13. Entre copa y copa (H. Marcó/A. d‘Agostino/A. Attadía) Angel D‘Agostino Y Su Orquesta Tipica 3:21
14. Mas solo que nunca (E. Dizeo/F. Leone) Angel D‘Agostino Y Su Orquesta Tipica 2:53
15. Trasnochando (S. Adamini, A. Baliotti) Angel D‘Agostino Y Su Orquesta Tipica 2:57
16. El Choclo (Angel Villoldo/Carlos M. Catán/Enrique S. Discépolo) Orquesta Tipica Victor 2:41
17. A Media Luz (Edgardo Donato/C. C. Lenzi) Alfredo de Angelis 2:29
18. El Once (O. N. Fresedo/E. Fresedo) Alfredo de Angelis 2:34
19. Organito de la tarde (J. G. Castillo, C. Castillo) Carlos Di Sarli Y Su Orquesta Típica 2:50
20. El ingeniero (Alejandro Junissi) Carlos Di Sarli Y Su Orquesta Típica 3:13
21. A la gran muñeca (M. F. Oses, Jesus Ventura) Carlos Di Sarli Y Su Orquesta Típica 2:48
Total Time 58:11
Log EAC
CD 1
Exact Audio Copy V0.99 prebeta 4 from 23. January 2008
Отчёт EAC об извлечении, выполненном 16. июля 2008, 15:02
CD 1 / El Tango
Дисковод: PLEXTOR CD-R PX-W8432T Adapter: 0 ID: 0
Режим чтения : Достоверность
Использование точного потока : Да
Отключение кэша аудио : Да
Использование указателей C2 : Да
Комбинированное смещение чтения/записи : 373
Способность читать области Lead-in и Lead-out : Да
Заполнение пропущенных сэмплов тишиной : Да
Удаление блоков с тишиной в начале и конце : Нет
При вычислениях CRC использовались нулевые сэмплы : Нет
Интерфейс : Установленный внешний ASPI-интерфейс
Обработка зазоров : Не обнаружено, добавлено к предыдущему треку
Выходной формат : Monkey's Audio Lossless Encoder v3.99 DLL
Формат сэмплов : Normal Lossless Compression
TOC извлечённого CD
Трек | Старт | Длительность | Начальный сектор | Конечный сектор
---------------------------------------------------------------------
1 | 0:00.00 | 2:59.41 | 0 | 13465
2 | 2:59.41 | 2:24.14 | 13466 | 24279
3 | 5:23.55 | 3:14.44 | 24280 | 38873
4 | 8:38.24 | 2:29.69 | 38874 | 50117
5 | 11:08.18 | 3:03.38 | 50118 | 63880
6 | 14:11.56 | 2:51.60 | 63881 | 76765
7 | 17:03.41 | 2:56.21 | 76766 | 89986
8 | 19:59.62 | 3:29.66 | 89987 | 105727
9 | 23:29.53 | 3:15.53 | 105728 | 120405
10 | 26:45.31 | 3:39.35 | 120406 | 136865
11 | 30:24.66 | 2:55.45 | 136866 | 150035
12 | 33:20.36 | 3:22.34 | 150036 | 165219
13 | 36:42.70 | 3:05.06 | 165220 | 179100
14 | 39:48.01 | 2:33.67 | 179101 | 190642
15 | 42:21.68 | 2:41.31 | 190643 | 202748
16 | 45:03.24 | 3:22.54 | 202749 | 217952
17 | 48:26.03 | 2:43.27 | 217953 | 230204
18 | 51:09.30 | 2:46.21 | 230205 | 242675
19 | 53:55.51 | 2:23.72 | 242676 | 253472
20 | 56:19.48 | 2:49.45 | 253473 | 266192
21 | 59:09.18 | 2:31.56 | 266193 | 277573
Трек 1
Имя файла D:\Music\Nec( Wr )=El Tango--CD 1\01--Anibal Troilo Y Su Orquesta Tipica - TINTA ROJA.ape
Пиковый уровень 99.1 %
Качество трека 100.0 %
CRC копии 184F8E2A
Копирование... OK
Трек 2
Имя файла D:\Music\Nec( Wr )=El Tango--CD 1\02--Anibal Troilo Y Su Orquesta Tipica - DEL TIEMPO GUAPO.ape
Пиковый уровень 99.1 %
Качество трека 100.0 %
CRC копии C810DB88
Копирование... OK
Трек 3
Имя файла D:\Music\Nec( Wr )=El Tango--CD 1\03--Anibal Troilo Y Su Orquesta Tipica - BARRIO DE TANGO.ape
Пиковый уровень 99.1 %
Качество трека 100.0 %
CRC копии EAAB8F7E
Копирование... OK
Трек 4
Имя файла D:\Music\Nec( Wr )=El Tango--CD 1\04--Juan D'Arienzo Y Su Orquesta Tipica - YAPEYU.ape
Пиковый уровень 99.2 %
Качество трека 100.0 %
CRC копии D15227EB
Копирование... OK
Трек 5
Имя файла D:\Music\Nec( Wr )=El Tango--CD 1\05--Juan D'Arienzo Y Su Orquesta Tipica -.ape
Пиковый уровень 99.1 %
Качество трека 100.0 %
CRC копии 4185E9D6
Копирование... OK
Трек 6
Имя файла D:\Music\Nec( Wr )=El Tango--CD 1\06--Juan D'Arienzo Y Su Orquesta Tipica - MUCHO MUCHO.ape
Пиковый уровень 99.1 %
Качество трека 99.8 %
CRC копии 92F2866B
Копирование... OK
Трек 7
Имя файла D:\Music\Nec( Wr )=El Tango--CD 1\07--Osvaldo Pugliese - VIEJA RECOVA.ape
Пиковый уровень 99.2 %
Качество трека 100.0 %
CRC копии 715062CE
Копирование... OK
Трек 8
Имя файла D:\Music\Nec( Wr )=El Tango--CD 1\08--Osvaldo Pugliese - PASIONAL.ape
Пиковый уровень 98.9 %
Качество трека 100.0 %
CRC копии A4151253
Копирование... OK
Трек 9
Имя файла D:\Music\Nec( Wr )=El Tango--CD 1\09--Osvaldo Pugliese - CHIQUE.ape
Пиковый уровень 99.2 %
Качество трека 99.8 %
CRC копии 701D3858
Копирование... OK
Трек 10
Имя файла D:\Music\Nec( Wr )=El Tango--CD 1\10--Angel d'Agostino Y Su Orquesta Tipica - LA CUMPARSITA.ape
Пиковый уровень 99.1 %
Качество трека 100.0 %
CRC копии 68E09A00
Копирование... OK
Трек 11
Имя файла D:\Music\Nec( Wr )=El Tango--CD 1\11--Angel d'Agostino Y Su Orquesta Tipica - CASCABELITO.ape
Пиковый уровень 99.2 %
Качество трека 99.8 %
CRC копии 1F53862B
Копирование... OK
Трек 12
Имя файла D:\Music\Nec( Wr )=El Tango--CD 1\12--Angel d'Agostino Y Su Orquesta Tipica - MUCHACHO.ape
Пиковый уровень 99.2 %
Качество трека 100.0 %
CRC копии CEAD311B
Копирование... OK
Трек 13
Имя файла D:\Music\Nec( Wr )=El Tango--CD 1\13--Domingo Federico Y Su Orquesta Tipica - LEYENDA GAUCHA.ape
Пиковый уровень 99.3 %
Качество трека 100.0 %
CRC копии 22827E33
Копирование... OK
Трек 14
Имя файла D:\Music\Nec( Wr )=El Tango--CD 1\14--Domingo Federico Y Su Orquesta Tipica - SALUDOS.ape
Пиковый уровень 99.1 %
Качество трека 100.0 %
CRC копии 2BAC9C9A
Копирование... OK
Трек 15
Имя файла D:\Music\Nec( Wr )=El Tango--CD 1\15--Domingo Federico Y Su Orquesta Tipica - YUYO VERDE.ape
Пиковый уровень 99.2 %
Качество трека 100.0 %
CRC копии 295CC91C
Копирование... OK
Трек 16
Имя файла D:\Music\Nec( Wr )=El Tango--CD 1\16--Adolfo Carabelli Y Su Orquesta Tipica - INSPIRACIЦN.ape
Пиковый уровень 99.2 %
Качество трека 99.8 %
CRC копии 2AD2F8B5
Копирование... OK
Трек 17
Имя файла D:\Music\Nec( Wr )=El Tango--CD 1\17--Orquesta Tipica Victor - VOLVIO LA PRINCESA.ape
Пиковый уровень 99.2 %
Качество трека 100.0 %
CRC копии 95E999BC
Копирование... OK
Трек 18
Имя файла D:\Music\Nec( Wr )=El Tango--CD 1\18--Orquesta Tipica Victor - VIENTO NORTE.ape
Пиковый уровень 99.2 %
Качество трека 100.0 %
CRC копии 09F8F920
Копирование... OK
Трек 19
Имя файла D:\Music\Nec( Wr )=El Tango--CD 1\19--Orquesta Portena - PAMPA.ape
Пиковый уровень 99.0 %
Качество трека 100.0 %
CRC копии 9A8B41A4
Копирование... OK
Трек 20
Имя файла D:\Music\Nec( Wr )=El Tango--CD 1\20--Orquesta Portena - Que Sapa' Sefior.ape
Пиковый уровень 99.1 %
Качество трека 100.0 %
CRC копии 29E85D8B
Копирование... OK
Трек 21
Имя файла D:\Music\Nec( Wr )=El Tango--CD 1\21--Orquesta Roberta Zerrillo - MELODIA ORIENTAL.ape
Пиковый уровень 98.8 %
Качество трека 100.0 %
CRC копии 1F052E13
Копирование... OK
Ошибок не произошло
Конец отчёта
CD 2
Exact Audio Copy V0.99 prebeta 4 from 23. January 2008
Отчёт EAC об извлечении, выполненном 16. июля 2008, 15:30
CD 2 / El Tangro
Дисковод: PLEXTOR CD-R PX-W8432T Adapter: 0 ID: 0
Режим чтения : Достоверность
Использование точного потока : Да
Отключение кэша аудио : Да
Использование указателей C2 : Да
Комбинированное смещение чтения/записи : 373
Способность читать области Lead-in и Lead-out : Да
Заполнение пропущенных сэмплов тишиной : Да
Удаление блоков с тишиной в начале и конце : Нет
При вычислениях CRC использовались нулевые сэмплы : Нет
Интерфейс : Установленный внешний ASPI-интерфейс
Обработка зазоров : Не обнаружено, добавлено к предыдущему треку
Выходной формат : Monkey's Audio Lossless Encoder v3.99 DLL
Формат сэмплов : Normal Lossless Compression
TOC извлечённого CD
Трек | Старт | Длительность | Начальный сектор | Конечный сектор
---------------------------------------------------------------------
1 | 0:00.00 | 2:49.51 | 0 | 12725
2 | 2:49.51 | 2:11.06 | 12726 | 22556
3 | 5:00.57 | 2:34.50 | 22557 | 34156
4 | 7:35.32 | 2:56.48 | 34157 | 47404
5 | 10:32.05 | 3:13.61 | 47405 | 61940
6 | 13:45.66 | 3:18.30 | 61941 | 76820
7 | 17:04.21 | 2:58.47 | 76821 | 90217
8 | 20:02.68 | 2:43.22 | 90218 | 102464
9 | 22:46.15 | 3:19.34 | 102465 | 117423
10 | 26:05.49 | 2:52.16 | 117424 | 130339
11 | 28:57.65 | 2:32.50 | 130340 | 141789
12 | 31:30.40 | 2:17.65 | 141790 | 152129
13 | 33:48.30 | 2:36.35 | 152130 | 163864
14 | 36:24.65 | 2:37.74 | 163865 | 175713
15 | 39:02.64 | 2:24.61 | 175714 | 186574
16 | 41:27.50 | 3:13.72 | 186575 | 201121
17 | 44:41.47 | 2:33.26 | 201122 | 212622
18 | 47:14.73 | 2:38.28 | 212623 | 224500
19 | 49:53.26 | 2:57.02 | 224501 | 237777
20 | 52:50.28 | 2:58.30 | 237778 | 251157
21 | 55:48.58 | 3:21.74 | 251158 | 266306
Трек 1
Имя файла D:\Music\Nec( Wr )=El Tangro--CD 2\01--Carlos Di Sarili Y Su Orquesta - RACING CLUB.ape
Пиковый уровень 99.1 %
Качество трека 100.0 %
CRC копии 27FE2622
Копирование... OK
Трек 2
Имя файла D:\Music\Nec( Wr )=El Tangro--CD 2\02--Carlos Di Sarili Y Su Orquesta - NOBLEZA DE ARRABAL.ape
Пиковый уровень 99.2 %
Качество трека 100.0 %
CRC копии 67A86C04
Копирование... OK
Трек 3
Имя файла D:\Music\Nec( Wr )=El Tangro--CD 2\03--Carlos Di Sarili Y Su Orquesta - CHARLEMOS.ape
Пиковый уровень 99.0 %
Качество трека 100.0 %
CRC копии 93C38D03
Копирование... OK
Трек 4
Имя файла D:\Music\Nec( Wr )=El Tangro--CD 2\04--Francisco Canaro Y Su Orquestra Tipica - RODRIGUEZ PENA.ape
Пиковый уровень 99.1 %
Качество трека 100.0 %
CRC копии 6532B6EB
Копирование... OK
Трек 5
Имя файла D:\Music\Nec( Wr )=El Tangro--CD 2\05--Francisco Canaro Y Su Orquestra Tipica - MANOAMANO.ape
Пиковый уровень 99.2 %
Качество трека 99.8 %
CRC копии 39A1FE41
Копирование... OK
Трек 6
Имя файла D:\Music\Nec( Wr )=El Tangro--CD 2\06--Francisco Canaro Y Su Orquestra Tipica - AMOUR ET PRINTEMPS.ape
Пиковый уровень 99.2 %
Качество трека 100.0 %
CRC копии 1448BDB4
Копирование... OK
Трек 7
Имя файла D:\Music\Nec( Wr )=El Tangro--CD 2\07--Jьan D'Arienzo Y Su Orquesta Tipica - SEPENOPORIPITAPA.ape
Пиковый уровень 98.8 %
Качество трека 100.0 %
CRC копии C7D3A10E
Копирование... OK
Трек 8
Имя файла D:\Music\Nec( Wr )=El Tangro--CD 2\08--Jьan D'Arienzo Y Su Orquesta Tipica - FATAL Y TANGUERA.ape
Пиковый уровень 98.3 %
Качество трека 100.0 %
CRC копии 06844088
Копирование... OK
Трек 9
Имя файла D:\Music\Nec( Wr )=El Tangro--CD 2\09--Jьan D'Arienzo Y Su Orquesta Tipica - EL TIGRE MILLAN.ape
Пиковый уровень 99.1 %
Качество трека 100.0 %
CRC копии 49745190
Копирование... OK
Трек 10
Имя файла D:\Music\Nec( Wr )=El Tangro--CD 2\10--Edgardo Donato Y Sus Mucnachos - EL HURACAN.ape
Пиковый уровень 99.2 %
Качество трека 100.0 %
CRC копии 0CF9EBF2
Копирование... OK
Трек 11
Имя файла D:\Music\Nec( Wr )=El Tangro--CD 2\11--Edgardo Donato Y Sus Mucnachos - CAMPO AFUERA.ape
Пиковый уровень 99.2 %
Качество трека 99.8 %
CRC копии 58585CD8
Копирование... OK
Трек 12
Имя файла D:\Music\Nec( Wr )=El Tangro--CD 2\12--Edgardo Donato Y Sus Mucnachos - LA CUMPARSITA.ape
Пиковый уровень 99.2 %
Качество трека 100.0 %
CRC копии 93B81EF0
Копирование... OK
Трек 13
Имя файла D:\Music\Nec( Wr )=El Tangro--CD 2\13--Adolfo Carabelll Y Su Orquesta Tipiea - FELIC]A.ape
Пиковый уровень 98.9 %
Качество трека 100.0 %
CRC копии 63E47044
Копирование... OK
Трек 14
Имя файла D:\Music\Nec( Wr )=El Tangro--CD 2\14--Adolfo Carabelll Y Su Orquesta Tipiea - VOLVE.ape
Пиковый уровень 99.3 %
Качество трека 100.0 %
CRC копии B524F3D2
Копирование... OK
Трек 15
Имя файла D:\Music\Nec( Wr )=El Tangro--CD 2\15--Adolfo Carabelll Y Su Orquesta Tipiea - CUATRO PALДBRAS.ape
Пиковый уровень 99.3 %
Качество трека 100.0 %
CRC копии A92608DC
Копирование... OK
Трек 16
Имя файла D:\Music\Nec( Wr )=El Tangro--CD 2\16--Anlbal Trollo Y Su Orquesta Tipica - YIRAYIRA.ape
Пиковый уровень 98.7 %
Качество трека 100.0 %
CRC копии 6C69C5B0
Копирование... OK
Трек 17
Имя файла D:\Music\Nec( Wr )=El Tangro--CD 2\17--Anlbal Trollo Y Su Orquesta Tipica - PABLO.ape
Пиковый уровень 99.1 %
Качество трека 100.0 %
CRC копии 9EFC12F0
Копирование... OK
Трек 18
Имя файла D:\Music\Nec( Wr )=El Tangro--CD 2\18--Anlbal Trollo Y Su Orquesta Tipica - QUEJAS DE BANDONEЦN.ape
Пиковый уровень 99.2 %
Качество трека 100.0 %
CRC копии 1BBADCC2
Копирование... OK
Трек 19
Имя файла D:\Music\Nec( Wr )=El Tangro--CD 2\19--Orquesta Carlos Flores - MELENITA DE ORO.ape
Пиковый уровень 99.3 %
Качество трека 100.0 %
CRC копии 652DF7C8
Копирование... OK
Трек 20
Имя файла D:\Music\Nec( Wr )=El Tangro--CD 2\20--Orquesta Carlos Flores - MUCHACHITA CALLEJERA.ape
Пиковый уровень 99.1 %
Качество трека 100.0 %
CRC копии 0EB2D83C
Копирование... OK
Трек 21
Имя файла D:\Music\Nec( Wr )=El Tangro--CD 2\21--Orquesta Tipica Victor - UNA VEZ.ape
Пиковый уровень 99.1 %
Качество трека 100.0 %
CRC копии BBEE8FC4
Копирование... OK
Ошибок не произошло
Конец отчёта
CD 3
Exact Audio Copy V0.99 prebeta 4 from 23. January 2008
Отчёт EAC об извлечении, выполненном 16. июля 2008, 16:29
CD 3 / El Tango
Дисковод: PLEXTOR CD-R PX-W8432T Adapter: 0 ID: 0
Режим чтения : Достоверность
Использование точного потока : Да
Отключение кэша аудио : Да
Использование указателей C2 : Да
Комбинированное смещение чтения/записи : 373
Способность читать области Lead-in и Lead-out : Да
Заполнение пропущенных сэмплов тишиной : Да
Удаление блоков с тишиной в начале и конце : Нет
При вычислениях CRC использовались нулевые сэмплы : Нет
Интерфейс : Установленный внешний ASPI-интерфейс
Обработка зазоров : Не обнаружено, добавлено к предыдущему треку
Выходной формат : Monkey's Audio Lossless Encoder v3.99 DLL
Формат сэмплов : Normal Lossless Compression
TOC извлечённого CD
Трек | Старт | Длительность | Начальный сектор | Конечный сектор
---------------------------------------------------------------------
1 | 0:00.00 | 2:23.69 | 0 | 10793
2 | 2:23.69 | 2:33.19 | 10794 | 22287
3 | 4:57.13 | 2:35.62 | 22288 | 33974
4 | 7:33.00 | 3:08.53 | 33975 | 48127
5 | 10:41.53 | 3:02.19 | 48128 | 61796
6 | 13:43.72 | 2:21.55 | 61797 | 72426
7 | 16:05.52 | 2:51.43 | 72427 | 85294
8 | 18:57.20 | 3:10.63 | 85295 | 99607
9 | 22:08.08 | 2:17.08 | 99608 | 109890
10 | 24:25.16 | 2:59.69 | 109891 | 123384
11 | 27:25.10 | 2:35.52 | 123385 | 135061
12 | 30:00.62 | 2:39.03 | 135062 | 146989
13 | 32:39.65 | 2:37.17 | 146990 | 158781
14 | 35:17.07 | 2:37.15 | 158782 | 170571
15 | 37:54.22 | 3:16.02 | 170572 | 185273
16 | 41:10.24 | 2:29.52 | 185274 | 196500
17 | 43:40.01 | 2:45.74 | 196501 | 208949
18 | 46:26.00 | 3:20.59 | 208950 | 224008
19 | 49:46.59 | 2:58.06 | 224009 | 237364
20 | 52:44.65 | 3:16.30 | 237365 | 252094
21 | 56:01.20 | 2:49.48 | 252095 | 264817
Трек 1
Имя файла D:\Music\Nec( Wr )=El Tango--CD 3\01--Edgardo Donato Y Sus Muchachos - QUE HACE QUE HACE.ape
Пиковый уровень 99.1 %
Качество трека 100.0 %
CRC копии 8A5D67F3
Копирование... OK
Трек 2
Имя файла D:\Music\Nec( Wr )=El Tango--CD 3\02--Edgardo Donato Y Sus Muchachos - PARA PUE.ape
Пиковый уровень 99.1 %
Качество трека 100.0 %
CRC копии E9BA5DFD
Копирование... OK
Трек 3
Имя файла D:\Music\Nec( Wr )=El Tango--CD 3\03--Edgardo Donato Y Sus Muchachos - ELLA ES ASI.ape
Пиковый уровень 99.1 %
Качество трека 100.0 %
CRC копии 8EC70CB0
Копирование... OK
Трек 4
Имя файла D:\Music\Nec( Wr )=El Tango--CD 3\04--Juan D'Arienzo - SABADO INGLES.ape
Пиковый уровень 99.2 %
Качество трека 100.0 %
CRC копии 76C7A7F3
Копирование... OK
Трек 5
Имя файла D:\Music\Nec( Wr )=El Tango--CD 3\05--Juan D'Arienzo - JOAQUINA.ape
Пиковый уровень 99.2 %
Качество трека 100.0 %
CRC копии D820D1E4
Копирование... OK
Трек 6
Имя файла D:\Music\Nec( Wr )=El Tango--CD 3\06--Juan D'Arienzo - MENTIA.ape
Пиковый уровень 99.0 %
Качество трека 100.0 %
CRC копии 60800DEE
Копирование... OK
Трек 7
Имя файла D:\Music\Nec( Wr )=El Tango--CD 3\07--Francisco Canaro - QUE JAS DE BANDONEON.ape
Пиковый уровень 98.9 %
Качество трека 100.0 %
CRC копии F3E44FB8
Копирование... OK
Трек 8
Имя файла D:\Music\Nec( Wr )=El Tango--CD 3\08--Francisco Canaro - LACUMPARSITA.ape
Пиковый уровень 99.1 %
Качество трека 100.0 %
CRC копии 531D3376
Копирование... OK
Трек 9
Имя файла D:\Music\Nec( Wr )=El Tango--CD 3\09--Francisco Canaro - LA PUNALADA.ape
Пиковый уровень 98.2 %
Качество трека 100.0 %
CRC копии 32A97BAA
Копирование... OK
Трек 10
Имя файла D:\Music\Nec( Wr )=El Tango--CD 3\10--Carlos Di Sarli - GRISETA.ape
Пиковый уровень 99.2 %
Качество трека 100.0 %
CRC копии 7526AE00
Копирование... OK
Трек 11
Имя файла D:\Music\Nec( Wr )=El Tango--CD 3\11--Carlos Di Sarli - CASCABELITO.ape
Пиковый уровень 99.0 %
Качество трека 100.0 %
CRC копии 6ACECC3C
Копирование... OK
Трек 12
Имя файла D:\Music\Nec( Wr )=El Tango--CD 3\12--Carlos Di Sarli - LA TORCASITA.ape
Пиковый уровень 99.2 %
Качество трека 99.8 %
CRC копии 291D8420
Копирование... OK
Трек 13
Имя файла D:\Music\Nec( Wr )=El Tango--CD 3\13--Adolfe Carabelli - PA' QUE LAGLIMEAR.ape
Пиковый уровень 99.0 %
Качество трека 100.0 %
CRC копии 797370D9
Копирование... OK
Трек 14
Имя файла D:\Music\Nec( Wr )=El Tango--CD 3\14--Orquesta Tipica Victor - POR EL CAMINO.ape
Пиковый уровень 99.1 %
Качество трека 100.0 %
CRC копии 9C636B90
Копирование... OK
Трек 15
Имя файла D:\Music\Nec( Wr )=El Tango--CD 3\15--Orquesta Tipica Victor - LO VIEN TUS OJOS.ape
Пиковый уровень 99.2 %
Качество трека 99.8 %
CRC копии 2BBAD886
Копирование... OK
Трек 16
Имя файла D:\Music\Nec( Wr )=El Tango--CD 3\16--Osvaldo Fresedo - DERECHO VIEJO.ape
Пиковый уровень 99.2 %
Качество трека 100.0 %
CRC копии ABC002FD
Копирование... OK
Трек 17
Имя файла D:\Music\Nec( Wr )=El Tango--CD 3\17--Hector Stamponi - NUEVE DE JULIO.ape
Пиковый уровень 99.0 %
Качество трека 100.0 %
CRC копии 1D92B2AE
Копирование... OK
Трек 18
Имя файла D:\Music\Nec( Wr )=El Tango--CD 3\18--Francisco Lauro Sexte» Los Mendocinos - EL HURACAN.ape
Пиковый уровень 99.1 %
Качество трека 100.0 %
CRC копии 7665FE69
Копирование... OK
Трек 19
Имя файла D:\Music\Nec( Wr )=El Tango--CD 3\19--Carlos Marcucci - TINIEBLAS.ape
Пиковый уровень 99.0 %
Качество трека 100.0 %
CRC копии 42777BFB
Копирование... OK
Трек 20
Имя файла D:\Music\Nec( Wr )=El Tango--CD 3\20--Carlos Marcucci - SI SUPIERAS.ape
Пиковый уровень 99.1 %
Качество трека 100.0 %
CRC копии B51429E9
Копирование... OK
Трек 21
Имя файла D:\Music\Nec( Wr )=El Tango--CD 3\21--Jьan Carlos Coblдn - EL MOTIVO.ape
Пиковый уровень 99.2 %
Качество трека 100.0 %
CRC копии FE03FDAB
Копирование... OK
Ошибок не произошло
Конец отчёта
CD 3
Exact Audio Copy V0.99 prebeta 4 from 23. January 2008
Отчёт EAC об извлечении, выполненном 16. июля 2008, 16:29
CD 3 / El Tango
Дисковод: PLEXTOR CD-R PX-W8432T Adapter: 0 ID: 0
Режим чтения : Достоверность
Использование точного потока : Да
Отключение кэша аудио : Да
Использование указателей C2 : Да
Комбинированное смещение чтения/записи : 373
Способность читать области Lead-in и Lead-out : Да
Заполнение пропущенных сэмплов тишиной : Да
Удаление блоков с тишиной в начале и конце : Нет
При вычислениях CRC использовались нулевые сэмплы : Нет
Интерфейс : Установленный внешний ASPI-интерфейс
Обработка зазоров : Не обнаружено, добавлено к предыдущему треку
Выходной формат : Monkey's Audio Lossless Encoder v3.99 DLL
Формат сэмплов : Normal Lossless Compression
TOC извлечённого CD
Трек | Старт | Длительность | Начальный сектор | Конечный сектор
---------------------------------------------------------------------
1 | 0:00.00 | 2:23.69 | 0 | 10793
2 | 2:23.69 | 2:33.19 | 10794 | 22287
3 | 4:57.13 | 2:35.62 | 22288 | 33974
4 | 7:33.00 | 3:08.53 | 33975 | 48127
5 | 10:41.53 | 3:02.19 | 48128 | 61796
6 | 13:43.72 | 2:21.55 | 61797 | 72426
7 | 16:05.52 | 2:51.43 | 72427 | 85294
8 | 18:57.20 | 3:10.63 | 85295 | 99607
9 | 22:08.08 | 2:17.08 | 99608 | 109890
10 | 24:25.16 | 2:59.69 | 109891 | 123384
11 | 27:25.10 | 2:35.52 | 123385 | 135061
12 | 30:00.62 | 2:39.03 | 135062 | 146989
13 | 32:39.65 | 2:37.17 | 146990 | 158781
14 | 35:17.07 | 2:37.15 | 158782 | 170571
15 | 37:54.22 | 3:16.02 | 170572 | 185273
16 | 41:10.24 | 2:29.52 | 185274 | 196500
17 | 43:40.01 | 2:45.74 | 196501 | 208949
18 | 46:26.00 | 3:20.59 | 208950 | 224008
19 | 49:46.59 | 2:58.06 | 224009 | 237364
20 | 52:44.65 | 3:16.30 | 237365 | 252094
21 | 56:01.20 | 2:49.48 | 252095 | 264817
Трек 1
Имя файла D:\Music\Nec( Wr )=El Tango--CD 3\01--Edgardo Donato Y Sus Muchachos - QUE HACE QUE HACE.ape
Пиковый уровень 99.1 %
Качество трека 100.0 %
CRC копии 8A5D67F3
Копирование... OK
Трек 2
Имя файла D:\Music\Nec( Wr )=El Tango--CD 3\02--Edgardo Donato Y Sus Muchachos - PARA PUE.ape
Пиковый уровень 99.1 %
Качество трека 100.0 %
CRC копии E9BA5DFD
Копирование... OK
Трек 3
Имя файла D:\Music\Nec( Wr )=El Tango--CD 3\03--Edgardo Donato Y Sus Muchachos - ELLA ES ASI.ape
Пиковый уровень 99.1 %
Качество трека 100.0 %
CRC копии 8EC70CB0
Копирование... OK
Трек 4
Имя файла D:\Music\Nec( Wr )=El Tango--CD 3\04--Juan D'Arienzo - SABADO INGLES.ape
Пиковый уровень 99.2 %
Качество трека 100.0 %
CRC копии 76C7A7F3
Копирование... OK
Трек 5
Имя файла D:\Music\Nec( Wr )=El Tango--CD 3\05--Juan D'Arienzo - JOAQUINA.ape
Пиковый уровень 99.2 %
Качество трека 100.0 %
CRC копии D820D1E4
Копирование... OK
Трек 6
Имя файла D:\Music\Nec( Wr )=El Tango--CD 3\06--Juan D'Arienzo - MENTIA.ape
Пиковый уровень 99.0 %
Качество трека 100.0 %
CRC копии 60800DEE
Копирование... OK
Трек 7
Имя файла D:\Music\Nec( Wr )=El Tango--CD 3\07--Francisco Canaro - QUE JAS DE BANDONEON.ape
Пиковый уровень 98.9 %
Качество трека 100.0 %
CRC копии F3E44FB8
Копирование... OK
Трек 8
Имя файла D:\Music\Nec( Wr )=El Tango--CD 3\08--Francisco Canaro - LACUMPARSITA.ape
Пиковый уровень 99.1 %
Качество трека 100.0 %
CRC копии 531D3376
Копирование... OK
Трек 9
Имя файла D:\Music\Nec( Wr )=El Tango--CD 3\09--Francisco Canaro - LA PUNALADA.ape
Пиковый уровень 98.2 %
Качество трека 100.0 %
CRC копии 32A97BAA
Копирование... OK
Трек 10
Имя файла D:\Music\Nec( Wr )=El Tango--CD 3\10--Carlos Di Sarli - GRISETA.ape
Пиковый уровень 99.2 %
Качество трека 100.0 %
CRC копии 7526AE00
Копирование... OK
Трек 11
Имя файла D:\Music\Nec( Wr )=El Tango--CD 3\11--Carlos Di Sarli - CASCABELITO.ape
Пиковый уровень 99.0 %
Качество трека 100.0 %
CRC копии 6ACECC3C
Копирование... OK
Трек 12
Имя файла D:\Music\Nec( Wr )=El Tango--CD 3\12--Carlos Di Sarli - LA TORCASITA.ape
Пиковый уровень 99.2 %
Качество трека 99.8 %
CRC копии 291D8420
Копирование... OK
Трек 13
Имя файла D:\Music\Nec( Wr )=El Tango--CD 3\13--Adolfe Carabelli - PA' QUE LAGLIMEAR.ape
Пиковый уровень 99.0 %
Качество трека 100.0 %
CRC копии 797370D9
Копирование... OK
Трек 14
Имя файла D:\Music\Nec( Wr )=El Tango--CD 3\14--Orquesta Tipica Victor - POR EL CAMINO.ape
Пиковый уровень 99.1 %
Качество трека 100.0 %
CRC копии 9C636B90
Копирование... OK
Трек 15
Имя файла D:\Music\Nec( Wr )=El Tango--CD 3\15--Orquesta Tipica Victor - LO VIEN TUS OJOS.ape
Пиковый уровень 99.2 %
Качество трека 99.8 %
CRC копии 2BBAD886
Копирование... OK
Трек 16
Имя файла D:\Music\Nec( Wr )=El Tango--CD 3\16--Osvaldo Fresedo - DERECHO VIEJO.ape
Пиковый уровень 99.2 %
Качество трека 100.0 %
CRC копии ABC002FD
Копирование... OK
Трек 17
Имя файла D:\Music\Nec( Wr )=El Tango--CD 3\17--Hector Stamponi - NUEVE DE JULIO.ape
Пиковый уровень 99.0 %
Качество трека 100.0 %
CRC копии 1D92B2AE
Копирование... OK
Трек 18
Имя файла D:\Music\Nec( Wr )=El Tango--CD 3\18--Francisco Lauro Sexte» Los Mendocinos - EL HURACAN.ape
Пиковый уровень 99.1 %
Качество трека 100.0 %
CRC копии 7665FE69
Копирование... OK
Трек 19
Имя файла D:\Music\Nec( Wr )=El Tango--CD 3\19--Carlos Marcucci - TINIEBLAS.ape
Пиковый уровень 99.0 %
Качество трека 100.0 %
CRC копии 42777BFB
Копирование... OK
Трек 20
Имя файла D:\Music\Nec( Wr )=El Tango--CD 3\20--Carlos Marcucci - SI SUPIERAS.ape
Пиковый уровень 99.1 %
Качество трека 100.0 %
CRC копии B51429E9
Копирование... OK
Трек 21
Имя файла D:\Music\Nec( Wr )=El Tango--CD 3\21--Jьan Carlos Coblдn - EL MOTIVO.ape
Пиковый уровень 99.2 %
Качество трека 100.0 %
CRC копии FE03FDAB
Копирование... OK
Ошибок не произошло
Конец отчёта
CD 4
Exact Audio Copy V0.99 prebeta 4 from 23. January 2008
Отчёт EAC об извлечении, выполненном 16. июля 2008, 17:00
CD 4 / El Tango
Дисковод: PLEXTOR CD-R PX-W8432T Adapter: 0 ID: 0
Режим чтения : Достоверность
Использование точного потока : Да
Отключение кэша аудио : Да
Использование указателей C2 : Да
Комбинированное смещение чтения/записи : 373
Способность читать области Lead-in и Lead-out : Да
Заполнение пропущенных сэмплов тишиной : Да
Удаление блоков с тишиной в начале и конце : Нет
При вычислениях CRC использовались нулевые сэмплы : Нет
Интерфейс : Установленный внешний ASPI-интерфейс
Обработка зазоров : Не обнаружено, добавлено к предыдущему треку
Выходной формат : Monkey's Audio Lossless Encoder v3.99 DLL
Формат сэмплов : Normal Lossless Compression
TOC извлечённого CD
Трек | Старт | Длительность | Начальный сектор | Конечный сектор
---------------------------------------------------------------------
1 | 0:00.00 | 2:37.11 | 0 | 11785
2 | 2:37.11 | 3:11.61 | 11786 | 26171
3 | 5:48.72 | 3:22.23 | 26172 | 41344
4 | 9:11.20 | 2:43.26 | 41345 | 53595
5 | 11:54.46 | 3:01.50 | 53596 | 67220
6 | 14:56.21 | 2:33.70 | 67221 | 78765
7 | 17:30.16 | 3:08.67 | 78766 | 92932
8 | 20:39.08 | 2:22.16 | 92933 | 103598
9 | 23:01.24 | 2:15.21 | 103599 | 113744
10 | 25:16.45 | 3:02.42 | 113745 | 127436
11 | 28:19.12 | 2:20.66 | 127437 | 138002
12 | 30:40.03 | 3:19.33 | 138003 | 152960
13 | 33:59.36 | 2:59.44 | 152961 | 166429
14 | 36:59.05 | 3:07.18 | 166430 | 180472
15 | 40:06.23 | 3:07.05 | 180473 | 194502
16 | 43:13.28 | 2:45.73 | 194503 | 206950
17 | 45:59.26 | 2:40.10 | 206951 | 218960
18 | 48:39.36 | 2:55.64 | 218961 | 232149
19 | 51:35.25 | 2:53.44 | 232150 | 245168
20 | 54:28.69 | 2:52.51 | 245169 | 258119
21 | 57:21.45 | 3:31.07 | 258120 | 273951
Трек 1
Имя файла D:\Music\Nec( Wr )=El Tango--CD 4\01--La Cumparsita.ape
Пиковый уровень 99.2 %
Качество трека 99.8 %
CRC копии D5DC4C1E
Копирование... OK
Трек 2
Имя файла D:\Music\Nec( Wr )=El Tango--CD 4\02--Inspiration.ape
Пиковый уровень 99.1 %
Качество трека 100.0 %
CRC копии 5F60F7A7
Копирование... OK
Трек 3
Имя файла D:\Music\Nec( Wr )=El Tango--CD 4\03--Mi noche triste.ape
Пиковый уровень 99.0 %
Качество трека 100.0 %
CRC копии DED174CD
Копирование... OK
Трек 4
Имя файла D:\Music\Nec( Wr )=El Tango--CD 4\04--Organito de la tarde.ape
Пиковый уровень 99.1 %
Качество трека 100.0 %
CRC копии 1FB186E2
Копирование... OK
Трек 5
Имя файла D:\Music\Nec( Wr )=El Tango--CD 4\05--Junto a tu corazon.ape
Пиковый уровень 99.2 %
Качество трека 99.8 %
CRC копии 1632130C
Копирование... OK
Трек 6
Имя файла D:\Music\Nec( Wr )=El Tango--CD 4\06--Don Jose Maria.ape
Пиковый уровень 99.2 %
Качество трека 100.0 %
CRC копии E41A85E0
Копирование... OK
Трек 7
Имя файла D:\Music\Nec( Wr )=El Tango--CD 4\07--La Punalada.ape
Пиковый уровень 99.2 %
Качество трека 100.0 %
CRC копии C70311DA
Копирование... OK
Трек 8
Имя файла D:\Music\Nec( Wr )=El Tango--CD 4\08--Jueves.ape
Пиковый уровень 99.1 %
Качество трека 100.0 %
CRC копии 6DB97470
Копирование... OK
Трек 9
Имя файла D:\Music\Nec( Wr )=El Tango--CD 4\09--Paciencia.ape
Пиковый уровень 99.0 %
Качество трека 100.0 %
CRC копии E5DEAE76
Копирование... OK
Трек 10
Имя файла D:\Music\Nec( Wr )=El Tango--CD 4\10--El entrerriano.ape
Пиковый уровень 99.0 %
Качество трека 100.0 %
CRC копии 46D4BB20
Копирование... OK
Трек 11
Имя файла D:\Music\Nec( Wr )=El Tango--CD 4\11--El Lloron.ape
Пиковый уровень 98.6 %
Качество трека 99.8 %
CRC копии 55AC8135
Копирование... OK
Трек 12
Имя файла D:\Music\Nec( Wr )=El Tango--CD 4\12--Vibraciones del Alma.ape
Пиковый уровень 98.6 %
Качество трека 100.0 %
CRC копии 785A98CF
Копирование... OK
Трек 13
Имя файла D:\Music\Nec( Wr )=El Tango--CD 4\13--Esta noche me emborracho.ape
Пиковый уровень 99.2 %
Качество трека 100.0 %
CRC копии E6615D1C
Копирование... OK
Трек 14
Имя файла D:\Music\Nec( Wr )=El Tango--CD 4\14--Fanfarron.ape
Пиковый уровень 99.2 %
Качество трека 100.0 %
CRC копии CEF03BAC
Копирование... OK
Трек 15
Имя файла D:\Music\Nec( Wr )=El Tango--CD 4\15--Huella Buey.ape
Пиковый уровень 99.2 %
Качество трека 100.0 %
CRC копии 83B7CFE4
Копирование... OK
Трек 16
Имя файла D:\Music\Nec( Wr )=El Tango--CD 4\16--Cuando Llora la Milonga.ape
Пиковый уровень 99.2 %
Качество трека 100.0 %
CRC копии E418F0A6
Копирование... OK
Трек 17
Имя файла D:\Music\Nec( Wr )=El Tango--CD 4\17--Re Fa Si.ape
Пиковый уровень 99.0 %
Качество трека 100.0 %
CRC копии C1D9CC57
Копирование... OK
Трек 18
Имя файла D:\Music\Nec( Wr )=El Tango--CD 4\18--Caminito.ape
Пиковый уровень 99.2 %
Качество трека 100.0 %
CRC копии 15D21C9F
Копирование... OK
Трек 19
Имя файла D:\Music\Nec( Wr )=El Tango--CD 4\19--Mentira.ape
Пиковый уровень 99.2 %
Качество трека 100.0 %
CRC копии 1ED04FA8
Копирование... OK
Трек 20
Имя файла D:\Music\Nec( Wr )=El Tango--CD 4\20--Alma.ape
Пиковый уровень 99.1 %
Качество трека 100.0 %
CRC копии 3877A7FF
Копирование... OK
Трек 21
Имя файла D:\Music\Nec( Wr )=El Tango--CD 4\21--Sur.ape
Пиковый уровень 98.9 %
Качество трека 100.0 %
CRC копии 59DDF06A
Копирование... OK
Ошибок не произошло
Конец отчёта
CD 5
Exact Audio Copy V0.99 prebeta 4 from 23. January 2008
Отчёт EAC об извлечении, выполненном 16. июля 2008, 17:42
CD 5 / El Tango
Дисковод: PLEXTOR CD-R PX-W8432T Adapter: 0 ID: 0
Режим чтения : Достоверность
Использование точного потока : Да
Отключение кэша аудио : Да
Использование указателей C2 : Да
Комбинированное смещение чтения/записи : 373
Способность читать области Lead-in и Lead-out : Да
Заполнение пропущенных сэмплов тишиной : Да
Удаление блоков с тишиной в начале и конце : Нет
При вычислениях CRC использовались нулевые сэмплы : Нет
Интерфейс : Установленный внешний ASPI-интерфейс
Обработка зазоров : Не обнаружено, добавлено к предыдущему треку
Выходной формат : Monkey's Audio Lossless Encoder v3.99 DLL
Формат сэмплов : Normal Lossless Compression
TOC извлечённого CD
Трек | Старт | Длительность | Начальный сектор | Конечный сектор
---------------------------------------------------------------------
1 | 0:00.00 | 3:11.23 | 0 | 14347
2 | 3:11.23 | 2:47.15 | 14348 | 26887
3 | 5:58.38 | 3:28.21 | 26888 | 42508
4 | 9:26.59 | 3:00.46 | 42509 | 56054
5 | 12:27.30 | 2:57.00 | 56055 | 69329
6 | 15:24.30 | 2:48.50 | 69330 | 81979
7 | 18:13.05 | 2:31.74 | 81980 | 93378
8 | 20:45.04 | 2:29.17 | 93379 | 104570
9 | 23:14.21 | 2:16.58 | 104571 | 114828
10 | 25:31.04 | 2:59.48 | 114829 | 128301
11 | 28:30.52 | 2:35.40 | 128302 | 139966
12 | 31:06.17 | 2:38.24 | 139967 | 151840
13 | 33:44.41 | 2:36.70 | 151841 | 163610
14 | 36:21.36 | 2:37.01 | 163611 | 175386
15 | 38:58.37 | 3:15.69 | 175387 | 190080
16 | 42:14.31 | 2:29.35 | 190081 | 201290
17 | 44:43.66 | 2:45.52 | 201291 | 213717
18 | 47:29.43 | 3:20.37 | 213718 | 228754
19 | 50:50.05 | 2:58.13 | 228755 | 242117
20 | 53:48.18 | 3:16.27 | 242118 | 256844
21 | 57:04.45 | 2:49.11 | 256845 | 269530
Трек 1
Имя файла D:\Music\Nec( Wr )=El Tango--CD 5\01--Tango Argentino.ape
Пиковый уровень 99.1 %
Качество трека 100.0 %
CRC копии 5522E2A8
Копирование... OK
Трек 2
Имя файла D:\Music\Nec( Wr )=El Tango--CD 5\02--Al Compas del Corazon.ape
Пиковый уровень 99.1 %
Качество трека 100.0 %
CRC копии 5A168FC5
Копирование... OK
Трек 3
Имя файла D:\Music\Nec( Wr )=El Tango--CD 5\03--Te Espero en Rodriguez Pena.ape
Пиковый уровень 99.1 %
Качество трека 100.0 %
CRC копии 6C864455
Копирование... OK
Трек 4
Имя файла D:\Music\Nec( Wr )=El Tango--CD 5\04--Julian.ape
Пиковый уровень 99.0 %
Качество трека 100.0 %
CRC копии 4E5F5A8B
Копирование... OK
Трек 5
Имя файла D:\Music\Nec( Wr )=El Tango--CD 5\05--Botija Linda.ape
Пиковый уровень 99.1 %
Качество трека 100.0 %
CRC копии 0F4F004C
Копирование... OK
Трек 6
Имя файла D:\Music\Nec( Wr )=El Tango--CD 5\06--Malquerida.ape
Пиковый уровень 99.1 %
Качество трека 100.0 %
CRC копии DF54ECEA
Копирование... OK
Трек 7
Имя файла D:\Music\Nec( Wr )=El Tango--CD 5\07--Asi es el Tango.ape
Пиковый уровень 99.2 %
Качество трека 100.0 %
CRC копии 7FEC4F43
Копирование... OK
Трек 8
Имя файла D:\Music\Nec( Wr )=El Tango--CD 5\08--El Chamuyo.ape
Пиковый уровень 99.2 %
Качество трека 100.0 %
CRC копии D10178B7
Копирование... OK
Трек 9
Имя файла D:\Music\Nec( Wr )=El Tango--CD 5\09--Vieja Amiga.ape
Пиковый уровень 98.2 %
Качество трека 100.0 %
CRC копии 22963DF3
Копирование... OK
Трек 10
Имя файла D:\Music\Nec( Wr )=El Tango--CD 5\10--Bandoneon Arrabalero.ape
Пиковый уровень 99.1 %
Качество трека 100.0 %
CRC копии D8AC8A9A
Копирование... OK
Трек 11
Имя файла D:\Music\Nec( Wr )=El Tango--CD 5\11--Tiene Razon Amigazo.ape
Пиковый уровень 99.0 %
Качество трека 99.8 %
CRC копии 41FA6AA5
Копирование... OK
Трек 12
Имя файла D:\Music\Nec( Wr )=El Tango--CD 5\12--Doblando el Codo.ape
Пиковый уровень 99.2 %
Качество трека 100.0 %
CRC копии 39F70160
Копирование... OK
Трек 13
Имя файла D:\Music\Nec( Wr )=El Tango--CD 5\13--Inspiracion.ape
Пиковый уровень 99.1 %
Качество трека 100.0 %
CRC копии EA704332
Копирование... OK
Трек 14
Имя файла D:\Music\Nec( Wr )=El Tango--CD 5\14--sentimento Gaicho.ape
Пиковый уровень 99.1 %
Качество трека 100.0 %
CRC копии 9AB2BDAC
Копирование... OK
Трек 15
Имя файла D:\Music\Nec( Wr )=El Tango--CD 5\15--Yo no se que me han hecho tus ojos.ape
Пиковый уровень 98.9 %
Качество трека 100.0 %
CRC копии CCF1565E
Копирование... OK
Трек 16
Имя файла D:\Music\Nec( Wr )=El Tango--CD 5\16--La Cumparsita.ape
Пиковый уровень 99.2 %
Качество трека 99.8 %
CRC копии AB10107E
Копирование... OK
Трек 17
Имя файла D:\Music\Nec( Wr )=El Tango--CD 5\17--Florida.ape
Пиковый уровень 99.0 %
Качество трека 100.0 %
CRC копии 7EDF0BBB
Копирование... OK
Трек 18
Имя файла D:\Music\Nec( Wr )=El Tango--CD 5\18--Felicia.ape
Пиковый уровень 99.2 %
Качество трека 99.8 %
CRC копии AE758C87
Копирование... OK
Трек 19
Имя файла D:\Music\Nec( Wr )=El Tango--CD 5\19--tristeza Marine.ape
Пиковый уровень 99.1 %
Качество трека 99.8 %
CRC копии 700EEC44
Копирование... OK
Трек 20
Имя файла D:\Music\Nec( Wr )=El Tango--CD 5\20--Vea vea.ape
Пиковый уровень 99.0 %
Качество трека 100.0 %
CRC копии 1874E9F2
Копирование... OK
Трек 21
Имя файла D:\Music\Nec( Wr )=El Tango--CD 5\21--Siete Palabras.ape
Пиковый уровень 99.3 %
Качество трека 100.0 %
CRC копии A310CCEC
Копирование... OK
Ошибок не произошло
Конец отчёта
CD 6
Exact Audio Copy V0.99 prebeta 4 from 23. January 2008
Отчёт EAC об извлечении, выполненном 16. июля 2008, 18:22
CD 6 / El Tango
Дисковод: PLEXTOR CD-R PX-W8432T Adapter: 0 ID: 0
Режим чтения : Достоверность
Использование точного потока : Да
Отключение кэша аудио : Да
Использование указателей C2 : Да
Комбинированное смещение чтения/записи : 373
Способность читать области Lead-in и Lead-out : Да
Заполнение пропущенных сэмплов тишиной : Да
Удаление блоков с тишиной в начале и конце : Нет
При вычислениях CRC использовались нулевые сэмплы : Нет
Интерфейс : Установленный внешний ASPI-интерфейс
Обработка зазоров : Не обнаружено, добавлено к предыдущему треку
Выходной формат : Monkey's Audio Lossless Encoder v3.99 DLL
Формат сэмплов : Normal Lossless Compression
TOC извлечённого CD
Трек | Старт | Длительность | Начальный сектор | Конечный сектор
---------------------------------------------------------------------
1 | 0:00.00 | 2:29.32 | 0 | 11206
2 | 2:29.32 | 2:57.40 | 11207 | 24521
3 | 5:26.72 | 2:58.11 | 24522 | 37882
4 | 8:25.08 | 3:14.10 | 37883 | 52442
5 | 11:39.18 | 3:15.71 | 52443 | 67138
6 | 14:55.14 | 2:29.26 | 67139 | 78339
7 | 17:24.40 | 2:33.27 | 78340 | 89841
8 | 19:57.67 | 3:05.25 | 89842 | 103741
9 | 23:03.17 | 2:48.15 | 103742 | 116356
10 | 25:51.32 | 2:32.63 | 116357 | 127819
11 | 28:24.20 | 2:56.61 | 127820 | 141080
12 | 31:21.06 | 3:33.35 | 141081 | 157090
13 | 34:54.41 | 3:01.40 | 157091 | 170705
14 | 37:56.06 | 2:50.31 | 170706 | 183486
15 | 40:46.37 | 2:16.38 | 183487 | 193724
16 | 43:03.00 | 2:43.05 | 193725 | 205954
17 | 45:46.05 | 2:38.65 | 205955 | 217869
18 | 48:24.70 | 2:54.35 | 217870 | 230954
19 | 51:19.30 | 2:15.70 | 230955 | 241149
20 | 53:35.25 | 2:30.47 | 241150 | 252446
21 | 56:05.72 | 2:27.45 | 252447 | 263516
Трек 1
Имя файла D:\Music\Nec( Wr )=El Tango--CD 6\01--El Choclo--El Choclo.ape
Пиковый уровень 99.1 %
Качество трека 100.0 %
CRC копии DF3768C9
Копирование... OK
Трек 2
Имя файла D:\Music\Nec( Wr )=El Tango--CD 6\02--Rayito--Rayito.ape
Пиковый уровень 99.1 %
Качество трека 99.8 %
CRC копии 006A702A
Копирование... OK
Трек 3
Имя файла D:\Music\Nec( Wr )=El Tango--CD 6\03--Miloquita--Miloquita.ape
Пиковый уровень 99.1 %
Качество трека 100.0 %
CRC копии 35AB02C8
Копирование... OK
Трек 4
Имя файла D:\Music\Nec( Wr )=El Tango--CD 6\04--Noches de locura--Noches de locura.ape
Пиковый уровень 98.6 %
Качество трека 100.0 %
CRC копии FE662583
Копирование... OK
Трек 5
Имя файла D:\Music\Nec( Wr )=El Tango--CD 6\05--Viejo Coche--Viejo Coche.ape
Пиковый уровень 98.9 %
Качество трека 100.0 %
CRC копии 7E3D95AC
Копирование... OK
Трек 6
Имя файла D:\Music\Nec( Wr )=El Tango--CD 6\06--El Portenito--El Portenito.ape
Пиковый уровень 99.2 %
Качество трека 100.0 %
CRC копии E455A5CF
Копирование... OK
Трек 7
Имя файла D:\Music\Nec( Wr )=El Tango--CD 6\07--Antiguo Reloj de Cobre--Antiguo Reloj de Cobre.ape
Пиковый уровень 98.9 %
Качество трека 100.0 %
CRC копии 9B298EFC
Копирование... OK
Трек 8
Имя файла D:\Music\Nec( Wr )=El Tango--CD 6\08--La Yumba--La Yumba.ape
Пиковый уровень 99.3 %
Качество трека 100.0 %
CRC копии 17B3F893
Копирование... OK
Трек 9
Имя файла D:\Music\Nec( Wr )=El Tango--CD 6\09--Corrientes y Esmeralda--Corrientes y Esmeralda.ape
Пиковый уровень 98.8 %
Качество трека 100.0 %
CRC копии D7B96A0D
Копирование... OK
Трек 10
Имя файла D:\Music\Nec( Wr )=El Tango--CD 6\10--Milongueando en el 40--Milongueando en el 40.ape
Пиковый уровень 99.0 %
Качество трека 100.0 %
CRC копии ADBB2300
Копирование... OK
Трек 11
Имя файла D:\Music\Nec( Wr )=El Tango--CD 6\11--Toda mi Vida--Toda mi Vida.ape
Пиковый уровень 99.1 %
Качество трека 100.0 %
CRC копии 649119F7
Копирование... OK
Трек 12
Имя файла D:\Music\Nec( Wr )=El Tango--CD 6\12--Uno--Uno.ape
Пиковый уровень 99.2 %
Качество трека 100.0 %
CRC копии F45D612B
Копирование... OK
Трек 13
Имя файла D:\Music\Nec( Wr )=El Tango--CD 6\13--Barrio de Tango--Barrio de Tango.ape
Пиковый уровень 99.0 %
Качество трека 100.0 %
CRC копии 1069E10E
Копирование... OK
Трек 14
Имя файла D:\Music\Nec( Wr )=El Tango--CD 6\14--La Sonambula--La Sonambula.ape
Пиковый уровень 99.2 %
Качество трека 100.0 %
CRC копии 35FDF7D9
Копирование... OK
Трек 15
Имя файла D:\Music\Nec( Wr )=El Tango--CD 6\15--La Chiflada--La Chiflada.ape
Пиковый уровень 99.2 %
Качество трека 100.0 %
CRC копии D13CD258
Копирование... OK
Трек 16
Имя файла D:\Music\Nec( Wr )=El Tango--CD 6\16--A Bailar--A Bailar.ape
Пиковый уровень 99.1 %
Качество трека 100.0 %
CRC копии 528314E4
Копирование... OK
Трек 17
Имя файла D:\Music\Nec( Wr )=El Tango--CD 6\17--Cafe de los Angelitos--Cafe de los Angelitos.ape
Пиковый уровень 99.2 %
Качество трека 100.0 %
CRC копии EB407B60
Копирование... OK
Трек 18
Имя файла D:\Music\Nec( Wr )=El Tango--CD 6\18--Desde el Alma--Desde el Alma.ape
Пиковый уровень 99.2 %
Качество трека 100.0 %
CRC копии FC9B55CD
Копирование... OK
Трек 19
Имя файла D:\Music\Nec( Wr )=El Tango--CD 6\19--Nunca mas--Nunca mas.ape
Пиковый уровень 99.2 %
Качество трека 100.0 %
CRC копии ACA6B21B
Копирование... OK
Трек 20
Имя файла D:\Music\Nec( Wr )=El Tango--CD 6\20--Cicatrices--Cicatrices.ape
Пиковый уровень 99.2 %
Качество трека 100.0 %
CRC копии F453290A
Копирование... OK
Трек 21
Имя файла D:\Music\Nec( Wr )=El Tango--CD 6\21--Tabu--Tabu.ape
Пиковый уровень 99.1 %
Качество трека 99.8 %
CRC копии B03C5FF9
Копирование... OK
Ошибок не произошло
Конец отчёта
CD 7
Exact Audio Copy V0.99 prebeta 4 from 23. January 2008
Отчёт EAC об извлечении, выполненном 17. июля 2008, 11:53
CD 7 / El Tango
Дисковод: PLEXTOR CD-R PX-W8432T Adapter: 0 ID: 0
Режим чтения : Достоверность
Использование точного потока : Да
Отключение кэша аудио : Да
Использование указателей C2 : Да
Комбинированное смещение чтения/записи : 373
Способность читать области Lead-in и Lead-out : Да
Заполнение пропущенных сэмплов тишиной : Да
Удаление блоков с тишиной в начале и конце : Нет
При вычислениях CRC использовались нулевые сэмплы : Нет
Интерфейс : Установленный внешний ASPI-интерфейс
Обработка зазоров : Не обнаружено, добавлено к предыдущему треку
Выходной формат : Monkey's Audio Lossless Encoder v3.99 DLL
Формат сэмплов : Normal Lossless Compression
TOC извлечённого CD
Трек | Старт | Длительность | Начальный сектор | Конечный сектор
---------------------------------------------------------------------
1 | 0:00.00 | 2:35.22 | 0 | 11646
2 | 2:35.22 | 2:31.42 | 11647 | 23013
3 | 5:06.64 | 2:52.61 | 23014 | 35974
4 | 7:59.50 | 3:09.30 | 35975 | 50179
5 | 11:09.05 | 2:45.12 | 50180 | 62566
6 | 13:54.17 | 3:09.51 | 62567 | 76792
7 | 17:03.68 | 2:37.37 | 76793 | 88604
8 | 19:41.30 | 2:40.54 | 88605 | 100658
9 | 22:22.09 | 3:12.26 | 100659 | 115084
10 | 25:34.35 | 2:58.28 | 115085 | 128462
11 | 28:32.63 | 3:18.02 | 128463 | 143314
12 | 31:50.65 | 2:38.01 | 143315 | 155165
13 | 34:28.66 | 3:10.62 | 155166 | 169477
14 | 37:39.53 | 2:55.36 | 169478 | 182638
15 | 40:35.14 | 3:17.44 | 182639 | 197457
16 | 43:52.58 | 2:46.18 | 197458 | 209925
17 | 46:39.01 | 2:49.54 | 209926 | 222654
18 | 49:28.55 | 2:52.13 | 222655 | 235567
19 | 52:20.68 | 2:51.21 | 235568 | 248413
20 | 55:12.14 | 3:09.49 | 248414 | 262637
21 | 58:21.63 | 2:52.22 | 262638 | 275559
Трек 1
Имя файла D:\Music\Nec( Wr )=El Tango--CD 7\01--Comme il faut (Eduardo Arolas) Carlos Di Sarli Y Su Orquesta Tipica.ape
Пиковый уровень 98.4 %
Качество трека 100.0 %
CRC копии 02B8E1BC
Копирование... OK
Трек 2
Имя файла D:\Music\Nec( Wr )=El Tango--CD 7\02--El amanecer (Roberto Firpo) Carlos Di Sarli Y Su Orquesta.ape
Пиковый уровень 98.8 %
Качество трека 100.0 %
CRC копии 6ECCF95C
Копирование... OK
Трек 3
Имя файла D:\Music\Nec( Wr )=El Tango--CD 7\03--El once (E. Fresedo,O. Fresedo) Carlos Di Sarli Y Su Orquesta.ape
Пиковый уровень 99.2 %
Качество трека 100.0 %
CRC копии 784EB1C8
Копирование... OK
Трек 4
Имя файла D:\Music\Nec( Wr )=El Tango--CD 7\04--El Choclo (C. Marambio Catan,E. S. Discepolo,A. Villoldo) Angel D'Agostino Y Su Orquesta Tipica.ape
Пиковый уровень 99.0 %
Качество трека 100.0 %
CRC копии 5C285D1B
Копирование... OK
Трек 5
Имя файла D:\Music\Nec( Wr )=El Tango--CD 7\05--Pero yo se (Azucena Maizani) Angel D'Agostino Y Su Orquesta Tipica.ape
Пиковый уровень 98.7 %
Качество трека 100.0 %
CRC копии DB0B3FC9
Копирование... OK
Трек 6
Имя файла D:\Music\Nec( Wr )=El Tango--CD 7\06--Adios Arrabal (C. C. Lenzi,J. Bauer) Angel D'Agostino Y Su Orquesta Tipica.ape
Пиковый уровень 99.1 %
Качество трека 100.0 %
CRC копии 31EE5E28
Копирование... OK
Трек 7
Имя файла D:\Music\Nec( Wr )=El Tango--CD 7\07--Riendo (R. Scimarella,M. Maurano,,A. Malerba) Francisco Lomuto y su Orquesta Tipica.ape
Пиковый уровень 99.3 %
Качество трека 100.0 %
CRC копии 4DEB83DD
Копирование... OK
Трек 8
Имя файла D:\Music\Nec( Wr )=El Tango--CD 7\08--El barco Maria (H. Sanguinetti,C. Vivan) Francisco Lomuto y su Orquesta Tipica.ape
Пиковый уровень 99.2 %
Качество трека 100.0 %
CRC копии 69DDA491
Копирование... OK
Трек 9
Имя файла D:\Music\Nec( Wr )=El Tango--CD 7\09--No cantes ese tango (Rodolfo Arrigorriaga,Francisco Lomuto) Francisco Lomuto y su Orquesta Tipica.ape
Пиковый уровень 99.2 %
Качество трека 100.0 %
CRC копии FBA09C46
Копирование... OK
Трек 10
Имя файла D:\Music\Nec( Wr )=El Tango--CD 7\10--Malena (H. Manzi,Lucio Demar) Anibal Troilo Y Su Orquesta Tipica.ape
Пиковый уровень 99.2 %
Качество трека 100.0 %
CRC копии 6D961400
Копирование... OK
Трек 11
Имя файла D:\Music\Nec( Wr )=El Tango--CD 7\11--Tres amigos (Enrique Cadicamo) Anibal Troilo Y Su Orquesta Tipica.ape
Пиковый уровень 99.1 %
Качество трека 100.0 %
CRC копии 2EB55C9F
Копирование... OK
Трек 12
Имя файла D:\Music\Nec( Wr )=El Tango--CD 7\12--El entrerriano (R. Mendizabal) Anibal Troilo Y Su Orquesta Tipica.ape
Пиковый уровень 99.2 %
Качество трека 100.0 %
CRC копии FE3BB8ED
Копирование... OK
Трек 13
Имя файла D:\Music\Nec( Wr )=El Tango--CD 7\13--La abandone y no sabia (Jose Canet) Osvaldo Pugliese.ape
Пиковый уровень 99.0 %
Качество трека 100.0 %
CRC копии AB0CED8B
Копирование... OK
Трек 14
Имя файла D:\Music\Nec( Wr )=El Tango--CD 7\14--Canaro en Paris (A. Scarpino,J. Scarpino,J. Caldarella) Osvaldo Pugliese.ape
Пиковый уровень 99.4 %
Качество трека 100.0 %
CRC копии D78C2B60
Копирование... OK
Трек 15
Имя файла D:\Music\Nec( Wr )=El Tango--CD 7\15-- Se lustra senor (E. Alessio Marvil,Eduardo del Piano) Angel Vargas.ape
Пиковый уровень 99.2 %
Качество трека 100.0 %
CRC копии 4205FD41
Копирование... OK
Трек 16
Имя файла D:\Music\Nec( Wr )=El Tango--CD 7\16--La Cumparsita (Gerardo Matos Rodriguez,Gerardo Matos Rodriguez) Orquesta Ricardo Tanturi.ape
Пиковый уровень 99.2 %
Качество трека 100.0 %
CRC копии 32DBF97D
Копирование... OK
Трек 17
Имя файла D:\Music\Nec( Wr )=El Tango--CD 7\17--El reloj (R. Cantora) Juan D'Arienzo Y Su Orquesta Tipica.ape
Пиковый уровень 99.2 %
Качество трека 100.0 %
CRC копии D8E89A5D
Копирование... OK
Трек 18
Имя файла D:\Music\Nec( Wr )=El Tango--CD 7\18--Don Juan (R. Podesta,E. Ponzio) Carlos Di Sarli Y Su Orquesta Tipica.ape
Пиковый уровень 99.0 %
Качество трека 100.0 %
CRC копии 96B0CC56
Копирование... OK
Трек 19
Имя файла D:\Music\Nec( Wr )=El Tango--CD 7\19--Adios Pampa mia (F. Canaro, M. Mores, I. Pelay) Francisco Canaro Y Su Orquestra Tipica.ape
Пиковый уровень 99.2 %
Качество трека 100.0 %
CRC копии 86799EA6
Копирование... OK
Трек 20
Имя файла D:\Music\Nec( Wr )=El Tango--CD 7\20--A Media Luz (E. Donato,C. C. Lenzi) Francisco Canaro Y Su Orquestra Tipica.ape
Пиковый уровень 99.1 %
Качество трека 99.8 %
CRC копии FACEF18E
Копирование... OK
Трек 21
Имя файла D:\Music\Nec( Wr )=El Tango--CD 7\21--La ultima copa (F. Canaro,J. Caruso) Francisco Canaro Y Su Orquestra Tipica.ape
Пиковый уровень 99.3 %
Качество трека 100.0 %
CRC копии 486F8146
Копирование... OK
Ошибок не произошло
Конец отчёта
CD 8
Exact Audio Copy V0.99 prebeta 4 from 23. January 2008
Отчёт EAC об извлечении, выполненном 16. июля 2008, 20:09
CD 8 / El Tango
Дисковод: PLEXTOR CD-R PX-W8432T Adapter: 0 ID: 0
Режим чтения : Достоверность
Использование точного потока : Да
Отключение кэша аудио : Да
Использование указателей C2 : Да
Комбинированное смещение чтения/записи : 373
Способность читать области Lead-in и Lead-out : Да
Заполнение пропущенных сэмплов тишиной : Да
Удаление блоков с тишиной в начале и конце : Нет
При вычислениях CRC использовались нулевые сэмплы : Нет
Интерфейс : Установленный внешний ASPI-интерфейс
Обработка зазоров : Не обнаружено, добавлено к предыдущему треку
Выходной формат : Monkey's Audio Lossless Encoder v3.99 DLL
Формат сэмплов : Normal Lossless Compression
TOC извлечённого CD
Трек | Старт | Длительность | Начальный сектор | Конечный сектор
---------------------------------------------------------------------
1 | 0:00.00 | 3:45.54 | 0 | 16928
2 | 3:45.54 | 2:35.16 | 16929 | 28569
3 | 6:20.70 | 2:53.14 | 28570 | 41558
4 | 9:14.09 | 3:18.69 | 41559 | 56477
5 | 12:33.03 | 2:55.06 | 56478 | 69608
6 | 15:28.09 | 2:33.57 | 69609 | 81140
7 | 18:01.66 | 3:44.65 | 81141 | 98005
8 | 21:46.56 | 3:23.39 | 98006 | 113269
9 | 25:10.20 | 2:53.44 | 113270 | 126288
10 | 28:03.64 | 2:36.51 | 126289 | 138039
11 | 30:40.40 | 2:53.44 | 138040 | 151058
12 | 33:34.09 | 2:38.30 | 151059 | 162938
13 | 36:12.39 | 2:36.34 | 162939 | 174672
14 | 38:48.73 | 2:52.12 | 174673 | 187584
15 | 41:41.10 | 3:11.66 | 187585 | 201975
16 | 44:53.01 | 2:38.36 | 201976 | 213861
17 | 47:31.37 | 2:31.23 | 213862 | 225209
18 | 50:02.60 | 2:44.14 | 225210 | 237523
19 | 52:46.74 | 3:06.00 | 237524 | 251473
20 | 55:52.74 | 2:21.03 | 251474 | 262051
21 | 58:14.02 | 2:31.36 | 262052 | 273412
Трек 1
Имя файла D:\Music\Nec( Wr )=El Tango--CD 8\01--Esta Noche de Luna.ape
Пиковый уровень 99.3 %
Качество трека 100.0 %
CRC копии 2839914C
Копирование... OK
Трек 2
Имя файла D:\Music\Nec( Wr )=El Tango--CD 8\02--La Cachila.ape
Пиковый уровень 99.2 %
Качество трека 99.8 %
CRC копии DCAABE7A
Копирование... OK
Трек 3
Имя файла D:\Music\Nec( Wr )=El Tango--CD 8\03--La Cieguita.ape
Пиковый уровень 99.1 %
Качество трека 100.0 %
CRC копии 66C451C6
Копирование... OK
Трек 4
Имя файла D:\Music\Nec( Wr )=El Tango--CD 8\04--Corazon de Oro.ape
Пиковый уровень 99.3 %
Качество трека 100.0 %
CRC копии A6F5D561
Копирование... OK
Трек 5
Имя файла D:\Music\Nec( Wr )=El Tango--CD 8\05--Madreselva.ape
Пиковый уровень 99.5 %
Качество трека 100.0 %
CRC копии 8CE56ED6
Копирование... OK
Трек 6
Имя файла D:\Music\Nec( Wr )=El Tango--CD 8\06--El Choclo.ape
Пиковый уровень 99.2 %
Качество трека 100.0 %
CRC копии 0E27F0C3
Копирование... OK
Трек 7
Имя файла D:\Music\Nec( Wr )=El Tango--CD 8\07--La Cumparsita.ape
Пиковый уровень 99.2 %
Качество трека 100.0 %
CRC копии 46C347FA
Копирование... OK
Трек 8
Имя файла D:\Music\Nec( Wr )=El Tango--CD 8\08--Rodrgues Pena.ape
Пиковый уровень 99.0 %
Качество трека 100.0 %
CRC копии 8AAB2779
Копирование... OK
Трек 9
Имя файла D:\Music\Nec( Wr )=El Tango--CD 8\09--El Jaguel.ape
Пиковый уровень 98.7 %
Качество трека 100.0 %
CRC копии EB34C105
Копирование... OK
Трек 10
Имя файла D:\Music\Nec( Wr )=El Tango--CD 8\10--La ultima Cita.ape
Пиковый уровень 99.1 %
Качество трека 100.0 %
CRC копии 6381760E
Копирование... OK
Трек 11
Имя файла D:\Music\Nec( Wr )=El Tango--CD 8\11--Rondando tu Esquina.ape
Пиковый уровень 99.1 %
Качество трека 100.0 %
CRC копии 125D5D44
Копирование... OK
Трек 12
Имя файла D:\Music\Nec( Wr )=El Tango--CD 8\12--Destillos.ape
Пиковый уровень 99.2 %
Качество трека 99.8 %
CRC копии 63CACEED
Копирование... OK
Трек 13
Имя файла D:\Music\Nec( Wr )=El Tango--CD 8\13--El Amanecer.ape
Пиковый уровень 99.2 %
Качество трека 100.0 %
CRC копии F6930757
Копирование... OK
Трек 14
Имя файла D:\Music\Nec( Wr )=El Tango--CD 8\14--Senda Florida.ape
Пиковый уровень 99.2 %
Качество трека 100.0 %
CRC копии 959EF97E
Копирование... OK
Трек 15
Имя файла D:\Music\Nec( Wr )=El Tango--CD 8\15--Honda Tristeza.ape
Пиковый уровень 99.1 %
Качество трека 99.8 %
CRC копии A41D135A
Копирование... OK
Трек 16
Имя файла D:\Music\Nec( Wr )=El Tango--CD 8\16--A Media Luz.ape
Пиковый уровень 98.7 %
Качество трека 100.0 %
CRC копии 6CF1EA7B
Копирование... OK
Трек 17
Имя файла D:\Music\Nec( Wr )=El Tango--CD 8\17--Hombrecito.ape
Пиковый уровень 99.2 %
Качество трека 100.0 %
CRC копии 900BDC26
Копирование... OK
Трек 18
Имя файла D:\Music\Nec( Wr )=El Tango--CD 8\18--Una Noche en la Calle.ape
Пиковый уровень 99.1 %
Качество трека 100.0 %
CRC копии 7166D039
Копирование... OK
Трек 19
Имя файла D:\Music\Nec( Wr )=El Tango--CD 8\19--San Termo.ape
Пиковый уровень 99.2 %
Качество трека 100.0 %
CRC копии 24182CEE
Копирование... OK
Трек 20
Имя файла D:\Music\Nec( Wr )=El Tango--CD 8\20--Parque Patricios.ape
Пиковый уровень 99.1 %
Качество трека 100.0 %
CRC копии 2225B510
Копирование... OK
Трек 21
Имя файла D:\Music\Nec( Wr )=El Tango--CD 8\21--Tormenta.ape
Пиковый уровень 99.2 %
Качество трека 100.0 %
CRC копии 0F9EAB46
Копирование... OK
Ошибок не произошло
Конец отчёта
CD 9
Exact Audio Copy V0.99 prebeta 4 from 23. January 2008
Отчёт EAC об извлечении, выполненном 16. июля 2008, 20:38
CD 9 / El Tango
Дисковод: PLEXTOR CD-R PX-W8432T Adapter: 0 ID: 0
Режим чтения : Достоверность
Использование точного потока : Да
Отключение кэша аудио : Да
Использование указателей C2 : Да
Комбинированное смещение чтения/записи : 373
Способность читать области Lead-in и Lead-out : Да
Заполнение пропущенных сэмплов тишиной : Да
Удаление блоков с тишиной в начале и конце : Нет
При вычислениях CRC использовались нулевые сэмплы : Нет
Интерфейс : Установленный внешний ASPI-интерфейс
Обработка зазоров : Не обнаружено, добавлено к предыдущему треку
Выходной формат : Monkey's Audio Lossless Encoder v3.99 DLL
Формат сэмплов : Normal Lossless Compression
TOC извлечённого CD
Трек | Старт | Длительность | Начальный сектор | Конечный сектор
---------------------------------------------------------------------
1 | 0:00.00 | 2:30.45 | 0 | 11294
2 | 2:30.45 | 2:31.23 | 11295 | 22642
3 | 5:01.68 | 2:58.23 | 22643 | 36015
4 | 8:00.16 | 3:17.14 | 36016 | 50804
5 | 11:17.30 | 3:01.50 | 50805 | 64429
6 | 14:19.05 | 3:14.74 | 64430 | 79053
7 | 17:34.04 | 2:32.58 | 79054 | 90511
8 | 20:06.62 | 2:29.30 | 90512 | 101716
9 | 22:36.17 | 2:31.67 | 101717 | 113108
10 | 25:08.09 | 2:56.47 | 113109 | 126355
11 | 28:04.56 | 3:04.48 | 126356 | 140203
12 | 31:09.29 | 3:10.63 | 140204 | 154516
13 | 34:20.17 | 2:37.60 | 154517 | 166351
14 | 36:58.02 | 3:14.57 | 166352 | 180958
15 | 40:12.59 | 2:46.45 | 180959 | 193453
16 | 42:59.29 | 2:40.11 | 193454 | 205464
17 | 45:39.40 | 2:40.15 | 205465 | 217479
18 | 48:19.55 | 2:48.50 | 217480 | 230129
19 | 51:08.30 | 2:47.72 | 230130 | 242726
20 | 53:56.27 | 2:42.68 | 242727 | 254944
21 | 56:39.20 | 2:44.44 | 254945 | 267288
Трек 1
Имя файла D:\Music\Nec( Wr )=El Tango--CD 9\01--Don Horacio.ape
Пиковый уровень 99.1 %
Качество трека 100.0 %
CRC копии 12702F28
Копирование... OK
Трек 2
Имя файла D:\Music\Nec( Wr )=El Tango--CD 9\02--No te Enganes, Coracon.ape
Пиковый уровень 99.2 %
Качество трека 100.0 %
CRC копии C9FA2879
Копирование... OK
Трек 3
Имя файла D:\Music\Nec( Wr )=El Tango--CD 9\03--Esclavas Blancas.ape
Пиковый уровень 98.8 %
Качество трека 100.0 %
CRC копии CAB34773
Копирование... OK
Трек 4
Имя файла D:\Music\Nec( Wr )=El Tango--CD 9\04--Nueve Puntos.ape
Пиковый уровень 99.2 %
Качество трека 100.0 %
CRC копии 12996436
Копирование... OK
Трек 5
Имя файла D:\Music\Nec( Wr )=El Tango--CD 9\05--Voviani.ape
Пиковый уровень 99.2 %
Качество трека 99.8 %
CRC копии 952F157C
Копирование... OK
Трек 6
Имя файла D:\Music\Nec( Wr )=El Tango--CD 9\06--Germain.ape
Пиковый уровень 99.3 %
Качество трека 100.0 %
CRC копии F19668F6
Копирование... OK
Трек 7
Имя файла D:\Music\Nec( Wr )=El Tango--CD 9\07--A Media Luz.ape
Пиковый уровень 99.2 %
Качество трека 100.0 %
CRC копии A8858710
Копирование... OK
Трек 8
Имя файла D:\Music\Nec( Wr )=El Tango--CD 9\08--Mis Pesares.ape
Пиковый уровень 99.0 %
Качество трека 100.0 %
CRC копии 279DBE9E
Копирование... OK
Трек 9
Имя файла D:\Music\Nec( Wr )=El Tango--CD 9\09--Soy Mendigo.ape
Пиковый уровень 99.2 %
Качество трека 100.0 %
CRC копии D3929EA8
Копирование... OK
Трек 10
Имя файла D:\Music\Nec( Wr )=El Tango--CD 9\10--El Huerfano.ape
Пиковый уровень 99.2 %
Качество трека 100.0 %
CRC копии FA956AFA
Копирование... OK
Трек 11
Имя файла D:\Music\Nec( Wr )=El Tango--CD 9\11-- Charlemos.ape
Пиковый уровень 99.2 %
Качество трека 100.0 %
CRC копии EC91BB7A
Копирование... OK
Трек 12
Имя файла D:\Music\Nec( Wr )=El Tango--CD 9\12--Y Todavia te Quiero.ape
Пиковый уровень 99.3 %
Качество трека 100.0 %
CRC копии 7FCBA0A2
Копирование... OK
Трек 13
Имя файла D:\Music\Nec( Wr )=El Tango--CD 9\13--Se te dio Vuelta la Taba.ape
Пиковый уровень 99.1 %
Качество трека 100.0 %
CRC копии 82FFEE77
Копирование... OK
Трек 14
Имя файла D:\Music\Nec( Wr )=El Tango--CD 9\14--Caminito.ape
Пиковый уровень 99.2 %
Качество трека 100.0 %
CRC копии C3C6B789
Копирование... OK
Трек 15
Имя файла D:\Music\Nec( Wr )=El Tango--CD 9\15--Cuando Llora la Milonga.ape
Пиковый уровень 99.0 %
Качество трека 100.0 %
CRC копии 681ED75C
Копирование... OK
Трек 16
Имя файла D:\Music\Nec( Wr )=El Tango--CD 9\16--Callcita de mi Novia.ape
Пиковый уровень 99.3 %
Качество трека 100.0 %
CRC копии EA2EF595
Копирование... OK
Трек 17
Имя файла D:\Music\Nec( Wr )=El Tango--CD 9\17--Sone con un Amor.ape
Пиковый уровень 99.1 %
Качество трека 100.0 %
CRC копии 3B7FE854
Копирование... OK
Трек 18
Имя файла D:\Music\Nec( Wr )=El Tango--CD 9\18--Caricias.ape
Пиковый уровень 99.1 %
Качество трека 100.0 %
CRC копии ECD5F5E3
Копирование... OK
Трек 19
Имя файла D:\Music\Nec( Wr )=El Tango--CD 9\19--Milonga, porque Lloras.ape
Пиковый уровень 98.9 %
Качество трека 99.8 %
CRC копии 39DBEDDC
Копирование... OK
Трек 20
Имя файла D:\Music\Nec( Wr )=El Tango--CD 9\20--El Montero del Globito.ape
Пиковый уровень 99.2 %
Качество трека 100.0 %
CRC копии EFA88EF7
Копирование... OK
Трек 21
Имя файла D:\Music\Nec( Wr )=El Tango--CD 9\21--El Marne.ape
Пиковый уровень 99.2 %
Качество трека 100.0 %
CRC копии A9F1B9EF
Копирование... OK
Ошибок не произошло
Конец отчёта
CD 10
Exact Audio Copy V0.99 prebeta 4 from 23. January 2008
Отчёт EAC об извлечении, выполненном 16. июля 2008, 21:18
CD 10 / El Tango
Дисковод: PLEXTOR CD-R PX-W8432T Adapter: 0 ID: 0
Режим чтения : Достоверность
Использование точного потока : Да
Отключение кэша аудио : Да
Использование указателей C2 : Да
Комбинированное смещение чтения/записи : 373
Способность читать области Lead-in и Lead-out : Да
Заполнение пропущенных сэмплов тишиной : Да
Удаление блоков с тишиной в начале и конце : Нет
При вычислениях CRC использовались нулевые сэмплы : Нет
Интерфейс : Установленный внешний ASPI-интерфейс
Обработка зазоров : Не обнаружено, добавлено к предыдущему треку
Выходной формат : Monkey's Audio Lossless Encoder v3.99 DLL
Формат сэмплов : Normal Lossless Compression
TOC извлечённого CD
Трек | Старт | Длительность | Начальный сектор | Конечный сектор
---------------------------------------------------------------------
1 | 0:00.00 | 2:32.00 | 0 | 11399
2 | 2:32.00 | 2:28.54 | 11400 | 22553
3 | 5:00.54 | 2:50.48 | 22554 | 35351
4 | 7:51.27 | 2:55.64 | 35352 | 48540
5 | 10:47.16 | 2:31.61 | 48541 | 59926
6 | 13:19.02 | 2:45.08 | 59927 | 72309
7 | 16:04.10 | 2:33.15 | 72310 | 83799
8 | 18:37.25 | 2:44.11 | 83800 | 96110
9 | 21:21.36 | 2:27.19 | 96111 | 107154
10 | 23:48.55 | 3:16.10 | 107155 | 121864
11 | 27:04.65 | 2:32.25 | 121865 | 133289
12 | 29:37.15 | 2:43.29 | 133290 | 145543
13 | 32:20.44 | 3:21.70 | 145544 | 160688
14 | 35:42.39 | 2:53.52 | 160689 | 173715
15 | 38:36.16 | 2:57.45 | 173716 | 187035
16 | 41:33.61 | 2:41.35 | 187036 | 199145
17 | 44:15.21 | 2:29.04 | 199146 | 210324
18 | 46:44.25 | 2:34.53 | 210325 | 221927
19 | 49:19.03 | 2:50.70 | 221928 | 234747
20 | 52:09.73 | 3:13.41 | 234748 | 249263
21 | 55:23.39 | 2:48.03 | 249264 | 261866
Трек 1
Имя файла D:\Music\Nec( Wr )=El Tango--CD 10\01--Chapaleando Barro.ape
Пиковый уровень 99.1 %
Качество трека 100.0 %
CRC копии BBB0DF65
Копирование... OK
Трек 2
Имя файла D:\Music\Nec( Wr )=El Tango--CD 10\02--Sombra Gaucha.ape
Пиковый уровень 99.3 %
Качество трека 100.0 %
CRC копии 23694F2E
Копирование... OK
Трек 3
Имя файла D:\Music\Nec( Wr )=El Tango--CD 10\03--Lagrimas.ape
Пиковый уровень 98.9 %
Качество трека 100.0 %
CRC копии 769A5FDD
Копирование... OK
Трек 4
Имя файла D:\Music\Nec( Wr )=El Tango--CD 10\04--Barajando.ape
Пиковый уровень 99.1 %
Качество трека 100.0 %
CRC копии 696A521C
Копирование... OK
Трек 5
Имя файла D:\Music\Nec( Wr )=El Tango--CD 10\05--Farabute.ape
Пиковый уровень 99.2 %
Качество трека 100.0 %
CRC копии 77A6CDA5
Копирование... OK
Трек 6
Имя файла D:\Music\Nec( Wr )=El Tango--CD 10\06--Amarga Sospecha.ape
Пиковый уровень 99.1 %
Качество трека 99.8 %
CRC копии 7A5F2A10
Копирование... OK
Трек 7
Имя файла D:\Music\Nec( Wr )=El Tango--CD 10\07--La Cumparsita.ape
Пиковый уровень 99.0 %
Качество трека 100.0 %
CRC копии 3BF0BB9D
Копирование... OK
Трек 8
Имя файла D:\Music\Nec( Wr )=El Tango--CD 10\08--Mino Bien.ape
Пиковый уровень 98.9 %
Качество трека 99.8 %
CRC копии F2FE48B4
Копирование... OK
Трек 9
Имя файла D:\Music\Nec( Wr )=El Tango--CD 10\09--Amor y Celo.ape
Пиковый уровень 99.1 %
Качество трека 99.8 %
CRC копии D32A5005
Копирование... OK
Трек 10
Имя файла D:\Music\Nec( Wr )=El Tango--CD 10\10--Si soy as.ape
Пиковый уровень 98.7 %
Качество трека 100.0 %
CRC копии 8AB9B219
Копирование... OK
Трек 11
Имя файла D:\Music\Nec( Wr )=El Tango--CD 10\11--No hay tierra com la mia.ape
Пиковый уровень 99.1 %
Качество трека 100.0 %
CRC копии EFF260D8
Копирование... OK
Трек 12
Имя файла D:\Music\Nec( Wr )=El Tango--CD 10\12--Mar de Fondo.ape
Пиковый уровень 99.1 %
Качество трека 100.0 %
CRC копии 40280411
Копирование... OK
Трек 13
Имя файла D:\Music\Nec( Wr )=El Tango--CD 10\13--Entre Copa y Copa.ape
Пиковый уровень 99.2 %
Качество трека 100.0 %
CRC копии 6C74231C
Копирование... OK
Трек 14
Имя файла D:\Music\Nec( Wr )=El Tango--CD 10\14--Mas solo que Nunca.ape
Пиковый уровень 99.2 %
Качество трека 100.0 %
CRC копии 302440DC
Копирование... OK
Трек 15
Имя файла D:\Music\Nec( Wr )=El Tango--CD 10\15--Trasnochando.ape
Пиковый уровень 99.1 %
Качество трека 100.0 %
CRC копии 5F49807C
Копирование... OK
Трек 16
Имя файла D:\Music\Nec( Wr )=El Tango--CD 10\16--El Choclo.ape
Пиковый уровень 99.2 %
Качество трека 100.0 %
CRC копии 33394D24
Копирование... OK
Трек 17
Имя файла D:\Music\Nec( Wr )=El Tango--CD 10\17--A Media Luz.ape
Пиковый уровень 99.1 %
Качество трека 100.0 %
CRC копии 61794630
Копирование... OK
Трек 18
Имя файла D:\Music\Nec( Wr )=El Tango--CD 10\18--El Once.ape
Пиковый уровень 99.0 %
Качество трека 100.0 %
CRC копии 1C4E42B1
Копирование... OK
Трек 19
Имя файла D:\Music\Nec( Wr )=El Tango--CD 10\19--Organito de la Tarde.ape
Пиковый уровень 99.2 %
Качество трека 100.0 %
CRC копии A23F38B3
Копирование... OK
Трек 20
Имя файла D:\Music\Nec( Wr )=El Tango--CD 10\20--El Ingeniero.ape
Пиковый уровень 99.3 %
Качество трека 100.0 %
CRC копии A26AFA73
Копирование... OK
Трек 21
Имя файла D:\Music\Nec( Wr )=El Tango--CD 10\21--A la Gran Muneca.ape
Пиковый уровень 99.3 %
Качество трека 100.0 %
CRC копии 6A5370C0
Копирование... OK
Ошибок не произошло
Конец отчёта

_________________


Last edited by Koralina on 2012-01-29 08:22; edited 2 times in total
Other forum [Profile] [PM]
Display posts from previous:    
Reply to topic

The time now is: Today 17:02

All times are GMT + 3 Hours



You cannot post new topics in this forum
You cannot reply to topics in this forum
You cannot edit your posts in this forum
You cannot delete your posts in this forum
You cannot vote in polls in this forum
You cannot attach files in this forum
You cannot download files in this forum