Today is a free download without charge Download

(Ambient, Chillout) VA - Relax (Compiled by Nicolo) (2011) FLAC (tracks+.cue), Lossless

Reply to topic
 
Author
Message

Koralina ®

Longevity: 9 years 3 months

Posts: 994

Location: Lithuania

Торрент-статистика

Post 27-Mar-2012 16:13

[Quote]

VA - Relax (Compiled by Nicolo) (2011) Год: 2011
Жанр: Ambient, Chillout
Продолжительность: 01:09:12
Кодек: FLAC
Битрейт: Lossless
Тип рипа: tracks+.cue
01. Flaque - Horizon Variations [04:59]
02. Virtual Light - Insight [06:16]
03. Chlorophil - Viera Dub [05:04]
04. Alloy Trex - Rxable [07:28]
05. Audiovoid - Earth Pulse Fading [06:47]
06. Magman - Alley [07:57]
07. Flaque - The Clouds And The Sun [04:21]
08. Lemonchill - Mantra [07:03]
09. Magman - Sanctuary [09:46]
10. Rainbow Kandicane - Karma [04:44]
11. Return To Mono - Song For Sleepers [04:43]

Log

Код:
Exact Audio Copy V1.0 beta 3 from 29. August 2011
Отчёт EAC об извлечении, выполненном 26. марта 2012, 23:15
Various Artists / Relax
Дисковод: TSSTcorpCDDVDW SH-S223C   Adapter: 2  ID: 1
Режим чтения                 : Достоверность
Использование точного потока : Да
Отключение кэша аудио        : Да
Использование указателей C2  : Нет
Коррекция смещения при чтении                     : 697
Способность читать области Lead-in и Lead-out     : Нет
Заполнение пропущенных сэмплов тишиной            : Да
Удаление блоков с тишиной в начале и конце        : Нет
При вычислениях CRC использовались нулевые сэмплы : Да
Интерфейс                                         : Встроенный Win32-интерфейс для Win NT/2000
Обработка зазоров                                 : Добавлено к предыдущему треку
Выходной формат          : Пользовательский кодировщик
Выбранный битрейт        : 768 kBit/s
Качество                 : Высокий
Добавление ID3-тега      : Нет
Утилита сжатия           : C:\Program Files\Exact Audio Copy\FLAC\FLAC.EXE
Дополнительные параметры : -6 -V -T "ARTIST=%artist%" -T "TITLE=%title%" -T "ALBUM=%albumtitle%" -T "DATE=%year%" -T "TRACKNUMBER=%tracknr%" -T "GENRE=%genre%" -T "COMMENT=%comment%" -T "BAND=%albuminterpret%" -T "ALBUMARTIST=%albuminterpret%" -T "COMPOSER=%composer%" %haslyrics%--tag-from-file=LYRICS="%lyricsfile%"%haslyrics% -T "DISCNUMBER=%cdnumber%" -T "TOTALDISCS=%totalcds%" -T "TOTALTRACKS=%numtracks%" %hascover%--picture="%coverfile%"%hascover% %source% -o %dest%
TOC извлечённого CD
     Трек |   Старт  | Длительность | Начальный сектор | Конечный сектор
    ---------------------------------------------------------------------
       1  |  0:00.00 |    4:59.01   |           0      |      22425
       2  |  4:59.01 |    6:16.02   |       22426      |      50627
       3  | 11:15.03 |    5:04.43   |       50628      |      73470
       4  | 16:19.46 |    7:28.32   |       73471      |     107102
       5  | 23:48.03 |    6:47.25   |      107103      |     137652
       6  | 30:35.28 |    7:57.48   |      137653      |     173475
       7  | 38:33.01 |    4:21.25   |      173476      |     193075
       8  | 42:54.26 |    7:03.08   |      193076      |     224808
       9  | 49:57.34 |    9:46.61   |      224809      |     268819
      10  | 59:44.20 |    4:44.54   |      268820      |     290173
      11  | 64:28.74 |    4:43.34   |      290174      |     311432
Трек  1
     Имя файла C:\Users\DeathLikE\Desktop\Новая папка\01. Flaque - Horizon Variations (Relax).wav
     Длина предзазора  0:00:02.00
     Пиковый уровень 98.9 %
     Скорость извлечения 2.1 X
     Качество трека 100.0 %
     CRC теста 1D60DBF7
     CRC копии 1D60DBF7
     Точное извлечение (достоверность 2)  [492CEDD8]  (AR v1)
     Копирование... OK
Трек  2
     Имя файла C:\Users\DeathLikE\Desktop\Новая папка\02. Virtual Light - Insight (Relax).wav
     Пиковый уровень 98.9 %
     Скорость извлечения 2.4 X
     Качество трека 100.0 %
     CRC теста 3D0302CB
     CRC копии 3D0302CB
     Точное извлечение (достоверность 2)  [8B5096DF]  (AR v1)
     Копирование... OK
Трек  3
     Имя файла C:\Users\DeathLikE\Desktop\Новая папка\03. Chlorophil - Viera Dub (Relax).wav
     Пиковый уровень 98.9 %
     Скорость извлечения 2.6 X
     Качество трека 100.0 %
     CRC теста 7C4CEAC5
     CRC копии 7C4CEAC5
     Точное извлечение (достоверность 2)  [6812F239]  (AR v1)
     Копирование... OK
Трек  4
     Имя файла C:\Users\DeathLikE\Desktop\Новая папка\04. Alloy Trex - Rixble (Relax).wav
     Пиковый уровень 98.9 %
     Скорость извлечения 2.9 X
     Качество трека 100.0 %
     CRC теста BDB8C56B
     CRC копии BDB8C56B
     Точное извлечение (достоверность 2)  [1E370EBA]  (AR v1)
     Копирование... OK
Трек  5
     Имя файла C:\Users\DeathLikE\Desktop\Новая папка\05. Audiovoid - Earth Pulse Fading (Relax).wav
     Пиковый уровень 98.9 %
     Скорость извлечения 0.8 X
     Качество трека 99.9 %
     CRC теста A846E4C1
     CRC копии A846E4C1
     Точное извлечение (достоверность 2)  [EAC43EA3]  (AR v1)
     Копирование... OK
Трек  6
     Имя файла C:\Users\DeathLikE\Desktop\Новая папка\06. Magman - Alley (Relax).wav
     Пиковый уровень 98.9 %
     Скорость извлечения 3.4 X
     Качество трека 100.0 %
     CRC теста ECEC7956
     CRC копии ECEC7956
     Точное извлечение (достоверность 2)  [B4838F87]  (AR v1)
     Копирование... OK
Трек  7
     Имя файла C:\Users\DeathLikE\Desktop\Новая папка\07. Flaque - The Clouds and the Sun (Relax).wav
     Длина предзазора  4:27:07.01
     Пиковый уровень 98.9 %
     Скорость извлечения 3.3 X
     Качество трека 100.0 %
     CRC теста FBE0AC12
     CRC копии FBE0AC12
     Точное извлечение (достоверность 2)  [BC28E9DA]  (AR v1)
     Копирование... OK
Трек  8
     Имя файла C:\Users\DeathLikE\Desktop\Новая папка\08. Lemonchill - Mantra (Relax).wav
     Пиковый уровень 98.9 %
     Скорость извлечения 3.7 X
     Качество трека 100.0 %
     CRC теста 58A0A63E
     CRC копии 58A0A63E
     Точное извлечение (достоверность 2)  [2B071924]  (AR v1)
     Копирование... OK
Трек  9
     Имя файла C:\Users\DeathLikE\Desktop\Новая папка\09. Magman - Sanctuary (Relax).wav
     Пиковый уровень 98.9 %
     Скорость извлечения 1.5 X
     Качество трека 99.9 %
     CRC теста B8CBDC5D
     CRC копии B8CBDC5D
     Точное извлечение (достоверность 2)  [E42DE3F2]  (AR v1)
     Копирование... OK
Трек 10
     Имя файла C:\Users\DeathLikE\Desktop\Новая папка\10. Rainbow Kandicane - Karma (Relax).wav
     Пиковый уровень 98.9 %
     Скорость извлечения 0.2 X
     Качество трека 100.0 %
     CRC теста 04A53613
     CRC копии 04A53613
     Точное извлечение (достоверность 2)  [B3A7E988]  (AR v1)
     Копирование... OK
Трек 11
     Имя файла C:\Users\DeathLikE\Desktop\Новая папка\11. Return to Mono - Song for Sleepers (Relax).wav
     Пиковый уровень 96.6 %
     Скорость извлечения 3.9 X
     Качество трека 100.0 %
     CRC теста 6E492FFA
     CRC копии 6E492FFA
     Точное извлечение (достоверность 2)  [567F272A]  (AR v1)
     Копирование... OK
Все треки извлечены точно
Ошибок не произошло
Конец отчёта
---- CUETools DB Plugin V2.1.3
[CTDB TOCID: m4gyftc6reYzu499kuhxQe2PJZw-] disk not present in database, Submit result: m4gyftc6reYzu499kuhxQe2PJZw- has been uploaded
==== Контрольная сумма отчёта 998F233A8153AABF7C4247C9AD0763F3755AC55CE8B74ADDDBC2844EE00D32C8 ====

auCDtect Task manager:

Код:
DON'T MODIFY THIS FILE
-----------------------
PERFORMER: auCDtect Task Manager, ver. 1.5.1RC6 build 1.5.1.7
Copyright (c) 2008-2010 y-soft. All rights reserved
http://y-soft.org
ANALYZER: auCDtect: CD records authenticity detector, version 0.8.2
Copyright (c) 2004 Oleg Berngardt. All rights reserved.
Copyright (c) 2004 Alexander Djourik. All rights reserved.
FILE: 11. Return to Mono - Song for Sleepers (Relax).flac
  Size: 31774796 Hash: 0572F2B1920F5BAD57678FEE1F1D197E Accuracy: -m0
  Conclusion: CDDA 100%
  Signature: 9853F04749A50245B45E879BD0F090BE25B289FB
FILE: 10. Rainbow Kandicane - Karma (Relax).flac
  Size: 33714889 Hash: CCF8E3C7C927B7790A803B2AC88534A9 Accuracy: -m0
  Conclusion: CDDA 100%
  Signature: CA3C1251E836A7E91A537ABEC0E4397DDAA6717C
FILE: 09. Magman - Sanctuary (Relax).flac
  Size: 62322352 Hash: 38F794CF936B757D26223E626BC388DD Accuracy: -m0
  Conclusion: CDDA 100%
  Signature: D804EA4BF7DD92E02E02A736C89A4AEC6A18C803
FILE: 08. Lemonchill - Mantra (Relax).flac
  Size: 49495040 Hash: 19D98CA2B8BD47F5DF8F6FAFDD98D9C3 Accuracy: -m0
  Conclusion: CDDA 100%
  Signature: 628D1877E9C0CE33F32144D84B370BF620565D8C
FILE: 07. Flaque - The Clouds and the Sun (Relax).flac
  Size: 30014468 Hash: 2C73E1C6BFBA8AF912271A13B49B87CA Accuracy: -m0
  Conclusion: CDDA 100%
  Signature: A05C626DEA5567C4B45748F6600D93CBB1C92EB4
FILE: 06. Magman - Alley (Relax).flac
  Size: 45798773 Hash: 0E55E95AAD5D25F5A8166C55780E83E0 Accuracy: -m0
  Conclusion: CDDA 100%
  Signature: 3189A06F2515ECE49CE41F260C512FED14230A50
FILE: 05. Audiovoid - Earth Pulse Fading (Relax).flac
  Size: 40766066 Hash: EB489830B0B777D2E7E6C2466D07BDD2 Accuracy: -m0
  Conclusion: CDDA 100%
  Signature: CCAB6551C6A2802C5756885B1D8A2DC58343982F
FILE: 04. Alloy Trex - Rixble (Relax).flac
  Size: 45500391 Hash: DC2987407D40ABDC1334743D3E834A22 Accuracy: -m0
  Conclusion: CDDA 100%
  Signature: 8288782657B6CD0E5093A7F87C2BE8CED6B888F1
FILE: 03. Chlorophil - Viera Dub (Relax).flac
  Size: 30070532 Hash: C59620215A880C3FCA0F8F66B7AB2244 Accuracy: -m0
  Conclusion: CDDA 100%
  Signature: E2C4B1BBD23C5E3165EE05CE85A5B3E9086BA5B6
FILE: 02. Virtual Light - Insight (Relax).flac
  Size: 41892534 Hash: B7D9864D465093BE47126CDFBC2A2548 Accuracy: -m0
  Conclusion: CDDA 99%
  Signature: 6B647F09951DEB0EC41D78EE26341348F4FD665F
FILE: 01. Flaque - Horizon Variations (Relax).flac
  Size: 29992108 Hash: CB46D782515672E10181109C9369F456 Accuracy: -m0
  Conclusion: CDDA 62%
  Signature: A717FE68DA95ADB2F47F363D576B6FF3D101D214

_________________
Other forum [Profile] [PM]
Display posts from previous:    
Reply to topic

The time now is: Today 14:53

All times are GMT + 3 Hours



You cannot post new topics in this forum
You cannot reply to topics in this forum
You cannot edit your posts in this forum
You cannot delete your posts in this forum
You cannot vote in polls in this forum
You cannot attach files in this forum
You cannot download files in this forum