Today is a free download without charge Download

(Alternative Rock) Cage the Elephant - Thank You, Happy Birthday - 2011, FLAC (tracks+.cue), lossless

Reply to topic
 
Author
Message

Paullo ®

Gender:

Longevity: 10 years

Posts: 393

Location: деактивировано, причина: - Последний визит: 2017-06-22 darkos_bot 12.06.19г

Торрент-статистика

Post 11-Jan-2011 21:06

[Quote]

Cage the Elephant - Thank You, Happy Birthday
Производство: US
Жанр: Alternative Rock
Год выпуска альбома: 2011
Аудиокодек: FLAC
Тип рипа: tracks+cue
Год выпуска издания: 2011
Лейбл издания: Relentless Records
Полный скан буклета: Нет
Продолжительность: 44:36


01. Always Something (3:41)
02. Aberdeen (3:12)
03. Indy Kidz (5:02)
04. Shake Me Down (3:31)
05. 2024 (3:10)
06. Sell Yourself (2:11)
07. Rubber Ball (3:47)
08. Right Before My Eyes (3:14)
09. Around My Head (3:11)
10. Sabertooth Tiger (2:51)
11. Japanese Buffalo (3:03)
12. Flow (7:43)

LOG

Exact Audio Copy V0.99 prebeta 5 from 4. May 2009
EAC extraction logfile from 10. January 2011, 23:57
Cage the Elephant / Thank You, Happy Birthday
Used drive : ASUS DRW-1608P Adapter: 1 ID: 0
Read mode : Secure
Utilize accurate stream : Yes
Defeat audio cache : Yes
Make use of C2 pointers : No
Read offset correction : 48
Overread into Lead-In and Lead-Out : No
Fill up missing offset samples with silence : Yes
Delete leading and trailing silent blocks : No
Null samples used in CRC calculations : Yes
Used interface : Native Win32 interface for Win NT & 2000
Gap handling : Appended to previous track
Used output format : User Defined Encoder
Selected bitrate : 320 kBit/s
Quality : High
Add ID3 tag : No
Command line compressor : C:\Program Files (x86)\Exact Audio Copy\Flac\flac.exe
Additional command line options : -V -8 -T "artist=%a" -T "title=%t" -T "album=%g" -T "date=%y" -T "tracknumber=%n" -T "genre=%m" %s
TOC of the extracted CD
Track | Start | Length | Start sector | End sector
---------------------------------------------------------
1 | 0:00.00 | 3:41.71 | 0 | 16645
2 | 3:41.71 | 3:12.69 | 16646 | 31114
3 | 6:54.65 | 5:02.61 | 31115 | 53825
4 | 11:57.51 | 3:31.28 | 53826 | 69678
5 | 15:29.04 | 3:10.25 | 69679 | 83953
6 | 18:39.29 | 2:11.27 | 83954 | 93805
7 | 20:50.56 | 3:47.59 | 93806 | 110889
8 | 24:38.40 | 3:14.62 | 110890 | 125501
9 | 27:53.27 | 3:11.45 | 125502 | 139871
10 | 31:04.72 | 2:51.41 | 139872 | 152737
11 | 33:56.38 | 3:03.08 | 152738 | 166470
12 | 36:59.46 | 7:43.39 | 166471 | 201234
Track 1
Filename G:\EAC Rips\Cage the Elephant\Thank You, Happy Birthday\01 Always Something.wav
Pre-gap length 0:00:02.00
Peak level 98.9 %
Track quality 100.0 %
Test CRC 93671F88
Copy CRC 93671F88
Track not present in AccurateRip database
Copy OK
Track 2
Filename G:\EAC Rips\Cage the Elephant\Thank You, Happy Birthday\02 Aberdeen.wav
Peak level 98.7 %
Track quality 99.9 %
Test CRC D62E1381
Copy CRC D62E1381
Track not present in AccurateRip database
Copy OK
Track 3
Filename G:\EAC Rips\Cage the Elephant\Thank You, Happy Birthday\03 Indy Kidz.wav
Peak level 98.5 %
Track quality 99.9 %
Test CRC 0E2E247A
Copy CRC 0E2E247A
Track not present in AccurateRip database
Copy OK
Track 4
Filename G:\EAC Rips\Cage the Elephant\Thank You, Happy Birthday\04 Shake Me Down.wav
Peak level 98.7 %
Track quality 100.0 %
Test CRC CEB87301
Copy CRC CEB87301
Track not present in AccurateRip database
Copy OK
Track 5
Filename G:\EAC Rips\Cage the Elephant\Thank You, Happy Birthday\05 2024.wav
Peak level 98.5 %
Track quality 100.0 %
Test CRC 45B59201
Copy CRC 45B59201
Track not present in AccurateRip database
Copy OK
Track 6
Filename G:\EAC Rips\Cage the Elephant\Thank You, Happy Birthday\06 Sell Yourself.wav
Peak level 100.0 %
Track quality 100.0 %
Test CRC 2168BCD1
Copy CRC 2168BCD1
Track not present in AccurateRip database
Copy OK
Track 7
Filename G:\EAC Rips\Cage the Elephant\Thank You, Happy Birthday\07 Rubber Ball.wav
Peak level 64.5 %
Track quality 99.9 %
Test CRC D59C3C2E
Copy CRC D59C3C2E
Track not present in AccurateRip database
Copy OK
Track 8
Filename G:\EAC Rips\Cage the Elephant\Thank You, Happy Birthday\08 Right Before My Eyes.wav
Peak level 98.7 %
Track quality 100.0 %
Test CRC 133C911C
Copy CRC 133C911C
Track not present in AccurateRip database
Copy OK
Track 9
Filename G:\EAC Rips\Cage the Elephant\Thank You, Happy Birthday\09 Around my Head.wav
Peak level 98.5 %
Track quality 99.9 %
Test CRC 73BFF7B9
Copy CRC 73BFF7B9
Track not present in AccurateRip database
Copy OK
Track 10
Filename G:\EAC Rips\Cage the Elephant\Thank You, Happy Birthday\10 Sabertooth Tiger.wav
Peak level 100.0 %
Track quality 100.0 %
Test CRC 581AE95B
Copy CRC 581AE95B
Track not present in AccurateRip database
Copy OK
Track 11
Filename G:\EAC Rips\Cage the Elephant\Thank You, Happy Birthday\11 Japanese Buffalo.wav
Peak level 98.5 %
Track quality 100.0 %
Test CRC 64142099
Copy CRC 64142099
Track not present in AccurateRip database
Copy OK
Track 12
Filename G:\EAC Rips\Cage the Elephant\Thank You, Happy Birthday\12 Flow.wav
Peak level 100.0 %
Track quality 100.0 %
Test CRC 6085FF27
Copy CRC 6085FF27
Track not present in AccurateRip database
Copy OK
None of the tracks are present in the AccurateRip database
No errors occurred
End of status report

_________________
сами мы не местные...
Other forum [Profile] [PM]
Display posts from previous:    
Reply to topic

The time now is: Today 22:44

All times are GMT + 3 Hours



You cannot post new topics in this forum
You cannot reply to topics in this forum
You cannot edit your posts in this forum
You cannot delete your posts in this forum
You cannot vote in polls in this forum
You cannot attach files in this forum
You cannot download files in this forum