Today is a free download without charge Download

(New Age, Ambient) John Stanford - Deep Space (1999) [FLAC (image+.cue)|Lossless]

Reply to topic
 
Author
Message

Igor 1968 ®

Gender:

Longevity: 7 years 4 months

Posts: 140

Location: Харьков Украина

Торрент-статистика

Post 13-Jun-2012 12:36

[Quote]

John Stanford - Deep Space (1999)- Год: 1999
Жанр: New Age, Ambient
Продолжительность: 00:54:51
Кодек: FLAC
Битрейт: Lossless
Тип рипа: image+.cue
Трек лист:
1. The Watchers (9:25)
2. Deep Space (8:09)
3. Aurora (9:58)
4. Sea Of Tranquility (7:42)
5. Far Centaurus (10:49)
6. The Edge (8:47)

Отчёт ЕАС:

Код:
Exact Audio Copy V1.0 beta 1 from 15. November 2010
EAC extraction logfile from 5. May 2011, 19:53
John Stanford / Deep Space
Used drive  : Optiarc DVD RW AD-5200A   Adapter: 0  ID: 1
Read mode               : Secure
Utilize accurate stream : Yes
Defeat audio cache      : Yes
Make use of C2 pointers : No
Read offset correction                      : 48
Overread into Lead-In and Lead-Out          : No
Fill up missing offset samples with silence : Yes
Delete leading and trailing silent blocks   : No
Null samples used in CRC calculations       : Yes
Used interface                              : Installed external ASPI interface
Used output format              : User Defined Encoder
Selected bitrate                : 192 kBit/s
Quality                         : High
Add ID3 tag                     : No
Command line compressor         : C:\Program Files\FLAC\flac.exe
Additional command line options :  -8 -V -T "ARTIST=%a" -T "TITLE=%t" -T "ALBUM=%g" -T "DATE=%y" -T "TRACKNUMBER=%n" -T "GENRE=%m" -T "COMMENT=EAC FLAC -8" %s
TOC of the extracted CD
     Track |   Start  |  Length  | Start sector | End sector
    ---------------------------------------------------------
        1  |  0:00.00 |  9:25.34 |         0    |    42408
        2  |  9:25.34 |  8:08.64 |     42409    |    79072
        3  | 17:34.23 |  9:57.62 |     79073    |   123909
        4  | 27:32.10 |  7:42.33 |    123910    |   158592
        5  | 35:14.43 | 10:49.10 |    158593    |   207277
        6  | 46:03.53 |  8:47.34 |    207278    |   246836
Range status and errors
Selected range
     Filename J:\music\goa\flac\0_waffles\0_prepare\John Stanford - Deep Space\John Stanford - Deep Space.wav
     Peak level 100.0 %
     Extraction speed 0.5 X
     Range quality 100.0 %
     Test CRC 4978FE9A
     Copy CRC 4978FE9A
     Copy OK
No errors occurred
AccurateRip summary
Track  1  not present in database
Track  2  not present in database
Track  3  not present in database
Track  4  not present in database
Track  5  not present in database
Track  6  not present in database
None of the tracks are present in the AccurateRip database
End of status report
==== Log checksum D0F406C7D202B2E8D5D28CFF97D50091056AAB4B2603BE718A74BB7A6F9174AA ====

Отчёт auCDtect Task manager:

Код:
-----------------------
DON'T MODIFY THIS FILE
-----------------------
PERFORMER: auCDtect Task Manager, ver. 1.5.1RC6 build 1.5.1.7
Copyright (c) 2008-2010 y-soft. All rights reserved
http://y-soft.org
ANALYZER: auCDtect: CD records authenticity detector, version 0.8.2
Copyright (c) 2004 Oleg Berngardt. All rights reserved.
Copyright (c) 2004 Alexander Djourik. All rights reserved.
FILE: John Stanford - Deep Space.flac
  Size: 348561883 Hash: 4817020DF2A01AB397AE7F5AF756B303 Accuracy: -m0
  Conclusion: CDDA 100%
  Signature: C00365714799CB23D1318D40CD548BB03CB3A602


Last edited by Igor 1968 on 2012-06-13 20:40; edited 1 time in total
Other forum [Profile] [PM]
Display posts from previous:    
Reply to topic

The time now is: Today 08:40

All times are GMT + 3 Hours



You cannot post new topics in this forum
You cannot reply to topics in this forum
You cannot edit your posts in this forum
You cannot delete your posts in this forum
You cannot vote in polls in this forum
You cannot attach files in this forum
You cannot download files in this forum