Сегодня идет свободное скачивание без начисления Download

Симаррон / Cimarron (1960) DVDRip [H.264]

Ответить на тему
 
Автор
Сообщение

UndegraundMen ®

Стаж: 3 года 9 месяцев

Сообщений: 28329

Торрент-статистика

Пост 13-Июл-2013 14:00

[Цитировать]

Симаррон / Cimarron (1960) DVDRip [H.264] -«Story of a VAST and VIOLENT LAND!»- Русское название: Симаррон
Оригинальное название: Cimarron
Год выпуска: 1960
Жанр: Драма, Вестерн
Производство: США/Metro-Goldwyn-Mayer (MGM)
Описание фильма:
Смелый и честный Янси Крават по прозвищу «Симаррон» вместе со своей молодой женой приезжает в Оклахому, куда только что хлынула волна поселенцев. Тут ему приходится столкнуться с беззаконием и произволом, царящими на новых территориях. Жители фронтира признают лишь право сильного, но именно благодаря таким людям, как Симаррон, на эту землю постепенно приходит закон и цивилизация…
Экранизация одноименного романа американской писательницы Эдны Фербер.
Режиссер: Энтони Манн, Чарльз Уолтерс
Сценарий: Арнольд Шульман, Эдна Фербер
Продюсер: Эдмунд Грэйнджер
Актеры: Гленн Форд, Мария Шелл, Энн Бакстер, Артур О’Коннелл, Расс Тэмблин, Мерседес МакКэмбридж, Вик Морроу, Роберт Кит, Чарльз МакГроу, Гарри Морган
Продолжительность: 02:27:31
Качество видео: DVDRip
Перевод: Двуголосый закадровый
Субтитры: Отсутствуют

Дата мировой премьеры: 1 декабря 1960
Видеокодек: MPEG-4 AVC/H.264
Битрейт видео: ~1620 Кбит/сек
Размер кадра: 720x304
Аудиокодек: AC3 2.0
Битрейт аудио: 192 kbps

Знаете ли вы, что...

В середине съёмок фильма Энтони Манн был уволен и заменен режиссером Чарльзом Уолтерсом. Во второй раз история с остановкой работы над фильмом и последующим увольнением повторилась при съёмках картины «Спартак» (1964).
Фильм Энтони Манна является второй экранизацией романа Эдны Фарбер. Первый фильм «Симаррон» по этому произведению американской писательницы был поставлен в 1931 году американским режиссером Уэсли Рагглзом.
Название фильма связано с рекой «Симаррон», протекающей по территории штата Оклахома.

Награды:

Оскар, 1961 год
Номинации (2):
Лучшая работа художника (цветные фильмы)
Лучший звук

MediaInfo:

Общее
Уникальный идентификатор : 202212591075627860569652818569094913592 (0x9820BA7A49C0C045A25AC3999B725E38)
Полное имя : H:\Downloads\Симаррон.mkv
Формат : Matroska
Размер файла : 1,87 Гбайт
Продолжительность : 2 ч. 27 м.
Общий поток : 1814 Кбит/сек
Дата кодирования : UTC 2013-07-12 10:22:45
Программа кодирования : mkvmerge v6.0.0 ('Coming Up For Air') built on Jan 20 2013 09:52:00
Библиотека кодирования : libebml v1.3.0 + libmatroska v1.4.0
Видео
Идентификатор : 1
Формат : AVC
Формат/Информация : Advanced Video Codec
Профиль формата : [url=mailto:[email protected]][email protected][/url]
Параметр CABAC формата : Да
Параметр ReFrames формата : 8 кадров
Идентификатор кодека : V_MPEG4/ISO/AVC
Продолжительность : 2 ч. 27 м.
Битрейт : 1620 Кбит/сек
Ширина : 720 пикс.
Высота : 304 пикс.
Соотношение сторон : 2,35:1
Частота кадров : 23,976 кадр/сек
Цветовое пространство : YUV
Подвыборка цветности : 4:2:0
Битовая глубина : 8 бит
Тип развёртки : Прогрессивная
Бит/(Пиксели*Кадры) : 0.309
Размер потока : 1,63 Гбайт (87%)
Заголовок : Cimarron
Библиотека кодирования : x264 core 125 r2208 d9d2288
Настройки программы : cabac=1 / ref=8 / deblock=1:-1:-1 / analyse=0x3:0x133 / me=umh / subme=9 / psy=1 / psy_rd=1.00:0.10 / mixed_ref=1 / me_range=32 / chroma_me=1 / trellis=2 / 8x8dct=1 / cqm=0 / deadzone=21,11 / fast_pskip=0 / chroma_qp_offset=-3 / threads=6 / lookahead_threads=1 / sliced_threads=0 / nr=0 / decimate=1 / interlaced=0 / bluray_compat=0 / constrained_intra=0 / bframes=3 / b_pyramid=2 / b_adapt=2 / b_bias=0 / direct=3 / weightb=1 / open_gop=0 / weightp=2 / keyint=250 / keyint_min=25 / scenecut=40 / intra_refresh=0 / rc_lookahead=60 / rc=2pass / mbtree=1 / bitrate=1620 / ratetol=1.0 / qcomp=0.60 / qpmin=10 / qpmax=51 / qpstep=4 / cplxblur=20.0 / qblur=0.5 / ip_ratio=1.40 / aq=1:1.00
Язык : English
Аудио
Идентификатор : 2
Формат : AC-3
Формат/Информация : Audio Coding 3
Расширение режима : CM (complete main)
Идентификатор кодека : A_AC3
Продолжительность : 2 ч. 27 м.
Вид битрейта : Постоянный
Битрейт : 192 Кбит/сек
Каналы : 2 канала
Расположение каналов : Front: L R
Частота : 48,0 КГц
Битовая глубина : 16 бит
Метод сжатия : С потерями
Размер потока : 203 Мбайт (11%)
Заголовок : Профессиональный (двухголосый)
Язык : Russian
Скриншоты:                    Время раздачи: с 13:00 до 01:00 по Москве (выходные круглосуточно), до 10 скачавших
Вне форума [Профиль] [ЛС]
Показать сообщения:    
Ответить на тему

Текущее время: Сегодня 17:35

Часовой пояс: GMT + 3



Вы не можете начинать темы
Вы не можете отвечать на сообщения
Вы не можете редактировать свои сообщения
Вы не можете удалять свои сообщения
Вы не можете голосовать в опросах
Вы не можете прикреплять файлы к сообщениям
Вы не можете скачивать файлы