Сегодня идет свободное скачивание без начисления Download

Сокровище ацтеков / Der Schatz der Azteken (Роберт Сьодмак) (Приключения, Вестерн 1965) BDRip [H.264]

Ответить на тему
 
Автор
Сообщение

Omen ®

Стаж: 4 года 1 месяц

Сообщений: 194382

Торрент-статистика

Пост 15-Июл-2013 11:13

[Цитировать]

Сокровище ацтеков / Der Schatz der Azteken - Год выпуска: 1965
Жанр: Приключения, Вестерн
Описание фильма:
Немецкий ученый Карл Стернау по поручению президента Авраама Линкольна едет в Мексику,
чтобы поддержать Бенито Хуареса в борьбе против французских оккупантов. Он оказывается
вовлечен в поиски легендарных сокровищ ацтеков, за которыми охотятся банда головорезов
капитана Вердохи и хитроумный граф де Родриганда.
Пирамида сынов Солнца - [url=/forum/viewtopic.php?t=679472]http:///*spam*//forum/viewtopic.php?t=679472[/url]
Режиссер: Роберт Сьодмак
Актеры: Лекс Баркер, Жерар Баррэ, Рик Батталья, Мишель Жирардон, Алессандра Панаро,
Тереза Лорка, Фаусто Тоцци, Ганс Нилсен, Густаво Рохо, Кело Хендерсон, Жан-Роже Коссимон,
Фридрих фон Ледебур и др..
Продолжительность: 01:40:36
Качество видео: BDRip - AVC
Перевод: Многоголосый закадровый

Дата мировой премьеры: 04.03.1965
Видеокодек: H.264
Битрейт видео: ~1750 Кбит/с
Размер кадра: 1024x576
Аудиокодек: AC3, 2ch
Битрейт аудио: 192 Кб/с

MI:

Общее
Уникальный идентификатор : 200902864920363455525794172377260430454 (0x97247BFE1F046B2DB4D770D7C67D1476)
Полное имя : D:\Архив\Фильмы\Der Schatz der Azteken 1965.mkv
Формат : Matroska
Версия формата : Version 2
Размер файла : 1,37 Гбайт
Продолжительность : 1 ч. 40 м.
Общий поток : 1944 Кбит/сек
Дата кодирования : UTC 2013-07-11 17:00:40
Программа кодирования : mkvmerge v5.8.0 ('No Sleep / Pillow') built on Sep 2 2012 15:37:04
Библиотека кодирования : libebml v1.2.3 + libmatroska v1.3.0
Видео
Идентификатор : 1
Формат : AVC
Формат/Информация : Advanced Video Codec
Профиль формата : [url=mailto:[email protected]][email protected][/url]
Параметр CABAC формата : Да
Параметр ReFrames формата : 4 кадра
Идентификатор кодека : V_MPEG4/ISO/AVC
Продолжительность : 1 ч. 40 м.
Битрейт : 1750 Кбит/сек
Ширина : 1024 пикселя
Высота : 576 пикселей
Соотношение сторон : 16:9
Режим частоты кадров : Постоянный
Частота кадров : 23,976 кадра/сек
Цветовое пространство : YUV
Субдискретизация насыщенности : 4:2:0
Битовая глубина : 8 бит
Тип развёртки : Прогрессивная
Бит/(Пиксели*Кадры) : 0.124
Размер потока : 1,20 Гбайт (88%)
Библиотека кодирования : x264 core 125 r2208 d9d2288
Настройки программы : cabac=1 / ref=3 / deblock=1:-1:-1 / analyse=0x3:0x111 / me=umh / subme=9 / psy=1 / psy_rd=1.00:0.15 / mixed_ref=1 / me_range=32 / chroma_me=1 / trellis=2 / 8x8dct=1 / cqm=0 / deadzone=21,11 / fast_pskip=0 / chroma_qp_offset=-3 / threads=12 / lookahead_threads=2 / sliced_threads=0 / nr=0 / decimate=1 / interlaced=0 / bluray_compat=0 / constrained_intra=0 / bframes=3 / b_pyramid=2 / b_adapt=0 / b_bias=0 / direct=1 / weightb=1 / open_gop=0 / weightp=2 / keyint=250 / keyint_min=23 / scenecut=40 / intra_refresh=0 / rc_lookahead=50 / rc=2pass / mbtree=1 / bitrate=1750 / ratetol=1.0 / qcomp=0.60 / qpmin=0 / qpmax=69 / qpstep=4 / cplxblur=20.0 / qblur=0.5 / ip_ratio=1.40 / aq=1:1.00
Default : Да
Forced : Нет
Аудио
Идентификатор : 2
Формат : AC-3
Формат/Информация : Audio Coding 3
Профиль формата : Dolby Digital
Расширение режима : CM (complete main)
Параметр Endianness формата : Big
Идентификатор кодека : A_AC3
Продолжительность : 1 ч. 40 м.
Вид битрейта : Постоянный
Битрейт : 192 Кбит/сек
Каналы : 2 канала
Расположение каналов : Front: L R
Частота : 48,0 КГц
Битовая глубина : 16 бит
Метод сжатия : С потерями
Размер потока : 138 Мбайт (10%)
Язык : Russian
Default : Да
Forced : Нет
Скриншоты:          
   
Вне форума [Профиль] [ЛС]
Похожие темы
Форум Тема Автор Торрент Отв. Посл. сообщение
./templates/default/images/folder_dl.gif Фильмы 2011-2016 Капитан Саблезуб и сокровища Лама Рама / Kaptein Sabeltann og skatten i Lama Rama (Йон Андреас Андерсен, Лиза Мари Гамлем) [2014, Боевик, драма, комедия, приключения, HDRip] Russian Mafia
1 | 0

0 | 360

8

2016-08-08 16:49
Russian Mafia Последнее
Показать сообщения:    
Ответить на тему

Текущее время: Сегодня 00:21

Часовой пояс: GMT + 3



Вы не можете начинать темы
Вы не можете отвечать на сообщения
Вы не можете редактировать свои сообщения
Вы не можете удалять свои сообщения
Вы не можете голосовать в опросах
Вы не можете прикреплять файлы к сообщениям
Вы не можете скачивать файлы