Today is a free download without charge Download

Animal Planet. Сурикаты / The Meerkats (2008) BDRip [H.264/720p]

Reply to topic
 
Author
Message

UndegraundMen ®

Longevity: 6 years 9 months

Posts: 25145

Торрент-статистика

Post 15-Jul-2013 19:04

[Quote]

Animal Planet. Сурикаты / The Meerkats (2008) BDRip [H.264/720p]- Русское название: Animal Planet. Сурикаты
Оригинальное название: The Meerkats
Год выпуска: 2008
Производство: Великобритания , BBC Films, Animal Planet
Жанр: Документальный
Дата мировой премьеры: 15 октября 2008
Дата российской премьеры: 25 декабря 2008, «Каскад»

Режиссер: Джеймс Хонейборн / James Honeyborne
Cценарий: Александр МакКолл Смит, Джеймс Хонейборн
Актеры: Пол Ньюман / Paul Newman
Перевод: Дублированный (одноголосый)
Язык субтитров: Русский
Вид субтитров: Вшитые (отключаемые)
Описание фильма: На земле, обладающей волшебной красотой, где правила диктуют сильнейшие, маленькие создания построили свои дома. Их сила заключена в сплоченности и взаимовыручке. Их энергия покорит вас. Их мужество вдохновит вас. А их любовь напомнит о том, что такое семья.
Большой рассказ о самых маленьких...
Продолжительность: 01:23:11
Качество: BDRip [720p]
Видео кодек: MPEG-4 AVC/H.264
Битрейт видео: 6947 Кбит/сек
Размер кадра: 1280 x 544
Аудио#1: [Русский] АС3, 5.1 ch, 640 Кбит/с, 48,0 КГц
Аудио#2: [Английский] DTS, 5.1 ch, 1510 Кбит/с, 48,0 КГц

MediaInfo

General
Unique ID : 238270257681654459419204507664733704936 (0xB3412EB29786AEFA9DCF8F210DD812E8)
Complete name : A:\Релизы\The.Meerkats.(2008).BDRip.720p.mkv
Format : Matroska
Format version : Version 2
File size : 5.28 GiB
Duration : 1h 23mn
Overall bit rate : 9 086 Kbps
Encoded date : UTC 2010-01-10 23:00:30
Writing application : mkvmerge v3.0.0 ('Hang up your Hang-Ups') built on Dec 12 2009 15:20:35
Writing library : libebml v0.7.9 + libmatroska v0.8.1
Video
ID : 1
Format : AVC
Format/Info : Advanced Video Codec
Format profile : [url=mailto:[email protected]][email protected][/url]
Format settings, CABAC : Yes
Format settings, ReFrames : 8 frames
Codec ID : V_MPEG4/ISO/AVC
Duration : 1h 23mn
Bit rate : 6 947 Kbps
Width : 1 280 pixels
Height : 544 pixels
Display aspect ratio : 2.35:1
Frame rate mode : Constant
Frame rate : 23.976 fps
Color space : YUV
Chroma subsampling : 4:2:0
Bit depth : 8 bits
Scan type : Progressive
Bits/(Pixel*Frame) : 0.416
Stream size : 3.93 GiB (74%)
Title : The Meerkats 2008 720p BluRay x264 - HqF
Writing library : x264 core 68 r1183M f21daff
Encoding settings : cabac=1 / ref=8 / deblock=1:-3:-3 / analyse=0x3:0x113 / me=umh / subme=9 / psy_rd=1.0:0.2 / mixed_ref=1 / me_range=32 / chroma_me=1 / trellis=2 / 8x8dct=1 / cqm=0 / deadzone=21,11 / chroma_qp_offset=-3 / threads=6 / nr=0 / decimate=1 / mbaff=0 / bframes=3 / b_pyramid=1 / b_adapt=2 / b_bias=0 / direct=3 / wpredb=1 / keyint=250 / keyint_min=25 / scenecut=40 / rc=2pass / bitrate=6947 / ratetol=1.0 / qcomp=0.60 / qpmin=10 / qpmax=51 / qpstep=4 / cplxblur=20.0 / qblur=0.5 / ip_ratio=1.40 / pb_ratio=1.30 / aq=1:0.80
Language : English
Default : Yes
Forced : No
Audio #1
ID : 2
Format : AC-3
Format/Info : Audio Coding 3
Mode extension : CM (complete main)
Format settings, Endianness : Big
Codec ID : A_AC3
Duration : 1h 23mn
Bit rate mode : Constant
Bit rate : 640 Kbps
Channel(s) : 6 channels
Channel positions : Front: L C R, Side: L R, LFE
Sampling rate : 48.0 KHz
Bit depth : 16 bits
Compression mode : Lossy
Stream size : 381 MiB (7%)
Title : Одноголосный [ac3 6ch 640 kbps]
Language : Russian
Default : Yes
Forced : No
Audio #2
ID : 3
Format : DTS
Format/Info : Digital Theater Systems
Mode : 16
Format settings, Endianness : Big
Codec ID : A_DTS
Duration : 1h 23mn
Bit rate mode : Constant
Bit rate : 1 509 Kbps
Channel(s) : 6 channels
Channel positions : Front: L C R, Side: L R, LFE
Sampling rate : 48.0 KHz
Bit depth : 24 bits
Compression mode : Lossy
Stream size : 898 MiB (17%)
Title : Original [dts 6ch 1510 kbps]
Language : English
Default : No
Forced : No
Text #1
ID : 4
Format : UTF-8
Codec ID : S_TEXT/UTF8
Codec ID/Info : UTF-8 Plain Text
Title : Надписи
Language : Russian
Default : Yes
Forced : No
Text #2
ID : 5
Format : UTF-8
Codec ID : S_TEXT/UTF8
Codec ID/Info : UTF-8 Plain Text
Title : Полные
Language : Russian
Default : No
Forced : No
Скриншоты:
         
         
Other forum [Profile] [PM]
Display posts from previous:    
Reply to topic

The time now is: Today 18:32

All times are GMT + 3 Hours



You cannot post new topics in this forum
You cannot reply to topics in this forum
You cannot edit your posts in this forum
You cannot delete your posts in this forum
You cannot vote in polls in this forum
You cannot attach files in this forum
You cannot download files in this forum