Сегодня идет свободное скачивание без начисления Download

Угроза из Космоса / Menace from Outer Space (Холисворт Морс) (Фантастика, Приключения, Семейный 1956) TVRip

Ответить на тему
 
Автор
Сообщение

Omen ®

Стаж: 4 года 1 месяц

Сообщений: 194394

Торрент-статистика

Пост 15-Июл-2013 21:00

[Цитировать]

Угроза из Космоса / Menace from Outer Space- Год выпуска: 1956
Жанр: Фантастика, Приключения, Семейный
Описание фильма:
Вторая полнометражка о Рокки Джонсе отважном космическом рейнджере. На этот раз ему предстоит отправиться на Форнакс, загадочную луну Юпитера. что бы выяснить с неё обстреливает Землю Кристальными ракетами
Режиссер: Холисворт Морс
Актеры: Ричард Крейн, Скоти Бэкет, Сали Мэнсфайлед, Роберт Лиден, Марси Касс, Леонард Пэнн
Продолжительность: 01:15:39
Качество видео: TVRip
Перевод: Одноголосый закадровый
Автор перевода: Трамвай фильм
Релиз группа: Трамвай фильм
Язык субтитров: Русский (только надписи)
Вид субтитров: Вшитые

Видеокодек: Xvid
Битрейт видео: ~1 509 Кбит/с
Размер кадра: 480x368
Аудиокодек: MP3
Битрейт аудио: 2ch. 128Кбит/с

MediaInfo

Format : AVI
Format/Info : Audio Video Interleave
File size : 896 MiB
Duration : 1h 15mn
Overall bit rate : 1 656 Kbps
Video
ID : 0
Format : MPEG-4 Visual
Format profile : [email protected]
Format settings, BVOP : No
Format settings, QPel : No
Format settings, GMC : No warppoints
Format settings, Matrix : Default (H.263)
Codec ID : XVID
Codec ID/Hint : XviD
Duration : 1h 15mn
Bit rate : 1 509 Kbps
Width : 480 pixels
Height : 368 pixels
Display aspect ratio : 4:3
Frame rate : 29.970 fps
Original frame rate : 29.000 fps
Color space : YUV
Chroma subsampling : 4:2:0
Bit depth : 8 bits
Scan type : Progressive
Compression mode : Lossy
Bits/(Pixel*Frame) : 0.285
Stream size : 817 MiB (91%)
Writing library : XviD 1.2.1 (UTC 2008-12-04)
Audio
ID : 1
Format : MPEG Audio
Format version : Version 1
Format profile : Layer 3
Mode : Joint stereo
Mode extension : MS Stereo
Codec ID : 55
Codec ID/Hint : MP3
Duration : 1h 15mn
Bit rate mode : Constant
Bit rate : 128 Kbps
Channel(s) : 2 channels
Sampling rate : 48.0 KHz
Compression mode : Lossy
Stream size : 69.3 MiB (8%)
Alignment : Aligned on interleaves
Interleave, duration : 24 ms (0.72 video frame)
Writing library : LAME3.98.2
Скриншоты:
       
       
Вне форума [Профиль] [ЛС]
Показать сообщения:    
Ответить на тему

Текущее время: Сегодня 15:05

Часовой пояс: GMT + 3



Вы не можете начинать темы
Вы не можете отвечать на сообщения
Вы не можете редактировать свои сообщения
Вы не можете удалять свои сообщения
Вы не можете голосовать в опросах
Вы не можете прикреплять файлы к сообщениям
Вы не можете скачивать файлы