Сегодня идет свободное скачивание без начисления Download

Ее возмездие / The Vengeance of She (Клифф Оуэн) (Фэнтези, Приключения 1968) DVDRip [H.264]

Ответить на тему
 
Автор
Сообщение

Omen ®

Стаж: 4 года 1 месяц

Сообщений: 194359

Торрент-статистика

Пост 15-Июл-2013 21:03

[Цитировать]

Ее возмездие / The Vengeance of She -«Discover the Excitement of Olinka Berova - A New Screen Beauty in the body of a woman!»- Русское название: Ее возмездие
Оригинальное название: The Vengeance of She
Год выпуска: 1968
Жанр: Фэнтези, Приключения
Производство: Великобритания/Hammer Film Productions Limited, Seven Arts Productions
Описание фильма:
В молодую привлекательную девушку Кэрол неожиданно вселяется дух королевы старинного города Аиша. И теперь Кэрол, ведомая духом, отправляется в Северную Африку, чтобы стать преемницей таинственной королевы…
По мотивам романа Генри Райдера Хаггарда "Аэша: Её возвращение".
Продолжение фильма: Она / She (1965).
Режиссер: Клифф Оуэн
Сценарий: Питер О’Доннелл, Г. Райдер Хаггард
Продюсер: Айда Янг
Актеры: Джон Ричардсон, Ольга Шоберова, Эдвард Джадд, Колин Блейкли, Джил Мелфорд, Джордж Сьюэлл, Андре Морелл, Ноэл Уиллмен, Дерек Годфри, Даниель Ноэль
Продолжительность: 01:41:13
Качество видео: DVDRip
Перевод: Одноголосый закадровый

Дата мировой премьеры: 14 апреля 1968
Видеокодек: MPEG-4 AVC/H.264
Битрейт видео: ~1835 Кбит/сек
Размер кадра: 720x432
Аудиокодек: AC3 2.0
Битрейт аудио: 224 kbps

Знаете ли вы, что...

Урсула Андресс отказался сниматься в сиквеле, главная роль досталась Ольге Шоберовой.
После фильма «Ее возмездие», Ольга Шоберова изменила свое имя на Олинка Берова.
Съемки проходили в Монте-Карло и Альмерии, Испания начиная с 26 июня 1967 года.

MediaInfo:

Общее
Уникальный идентификатор : 188759756891901776930791525817571390923 (0x8E01CE8B0E83E62E9C4C6F789E2CB5CB)
Полное имя : H:\Downloads\Ее возмездие.mkv
Формат : Matroska
Размер файла : 1,46 Гбайт
Продолжительность : 1 ч. 41 м.
Общий поток : 2061 Кбит/сек
Название фильма : Ее возмездие / The Vengeance of She (1968)
Дата кодирования : UTC 2013-07-14 04:00:34
Программа кодирования : mkvmerge v6.0.0 ('Coming Up For Air') built on Jan 20 2013 09:52:00
Библиотека кодирования : libebml v1.3.0 + libmatroska v1.4.0
Видео
Идентификатор : 1
Формат : AVC
Формат/Информация : Advanced Video Codec
Профиль формата : [url=mailto:[email protected]][email protected][/url]
Параметр CABAC формата : Да
Параметр ReFrames формата : 8 кадров
Идентификатор кодека : V_MPEG4/ISO/AVC
Продолжительность : 1 ч. 41 м.
Битрейт : 1835 Кбит/сек
Ширина : 720 пикс.
Высота : 432 пикс.
Соотношение сторон : 1,667
Частота кадров : 23,976 кадр/сек
Цветовое пространство : YUV
Подвыборка цветности : 4:2:0
Битовая глубина : 8 бит
Тип развёртки : Прогрессивная
Бит/(Пиксели*Кадры) : 0.246
Размер потока : 1,27 Гбайт (87%)
Заголовок : The Vengeance of She
Библиотека кодирования : x264 core 125 r2208 d9d2288
Настройки программы : cabac=1 / ref=8 / deblock=1:-1:-1 / analyse=0x3:0x133 / me=umh / subme=9 / psy=1 / psy_rd=1.00:0.10 / mixed_ref=1 / me_range=32 / chroma_me=1 / trellis=2 / 8x8dct=1 / cqm=0 / deadzone=21,11 / fast_pskip=0 / chroma_qp_offset=-3 / threads=6 / lookahead_threads=1 / sliced_threads=0 / nr=0 / decimate=1 / interlaced=0 / bluray_compat=0 / constrained_intra=0 / bframes=3 / b_pyramid=2 / b_adapt=2 / b_bias=0 / direct=3 / weightb=1 / open_gop=0 / weightp=2 / keyint=250 / keyint_min=25 / scenecut=40 / intra_refresh=0 / rc_lookahead=60 / rc=2pass / mbtree=1 / bitrate=1835 / ratetol=1.0 / qcomp=0.60 / qpmin=10 / qpmax=51 / qpstep=4 / cplxblur=20.0 / qblur=0.5 / ip_ratio=1.40 / aq=1:1.00
Язык : English
Аудио
Идентификатор : 2
Формат : AC-3
Формат/Информация : Audio Coding 3
Расширение режима : CM (complete main)
Идентификатор кодека : A_AC3
Продолжительность : 1 ч. 41 м.
Вид битрейта : Постоянный
Битрейт : 224 Кбит/сек
Каналы : 2 канала
Расположение каналов : Front: L R
Частота : 48,0 КГц
Битовая глубина : 16 бит
Метод сжатия : С потерями
Размер потока : 162 Мбайт (11%)
Заголовок : Одноголосый (закадровый) Spacedust
Язык : Russian
Скриншоты:                    
Вне форума [Профиль] [ЛС]
Показать сообщения:    
Ответить на тему

Текущее время: Сегодня 05:12

Часовой пояс: GMT + 3



Вы не можете начинать темы
Вы не можете отвечать на сообщения
Вы не можете редактировать свои сообщения
Вы не можете удалять свои сообщения
Вы не можете голосовать в опросах
Вы не можете прикреплять файлы к сообщениям
Вы не можете скачивать файлы