Сегодня идет свободное скачивание без начисления Download

Бекет / Becket (1964) [1080p] BDRip

Ответить на тему
 
Автор
Сообщение

UndegraundMen ®

Стаж: 3 года 9 месяцев

Сообщений: 28329

Торрент-статистика

Пост 17-Июл-2013 11:00

[Цитировать]

Бекет / Becket (1964) BDRip [1080p] -«An age of rampant lusts, abandon, runaway passions. An age brought bristling to life by two of the most exciting stars of our time!»
Русское название: Бекет
Оригинальное название: Becket
Выпущено: США, Великобритания, Keep Films Limited, Paramount Film Service, Paramount Pictures
Год выпуска: 1964
Жанр: Драма
Описание фильма:
Экранизация пьесы Жана Ануйя. Ричард Бертон великолепен в роли епископа Беккета, а Питер О Тул в роли Генриха II. Епископ защищает церковь от полного подавления королевской властью. Два бывших друга превращаются в непримиримых противников по мере того, как епископ все ревностней относится к выполнению своего долга. Король понимает, что его бывший друг должен быть убит, после того как они встретятся, сдерживая коней у берега моря, в попытке примирения. Содержание фильма, как и пьесы, состоит из диалогов и монологов о долге, чести, мужестве, Боге, смерти, власти. Ануй и Анхолт очень бережно отнеслись к историческим фактам и добавили только личные взаимоотношения между двумя великими людьми, получив "Оскар" за сценарий-адаптацию. Желаю приятного просмотра...
Режиссер: Питер Гленвилл
Актеры: Ричард Бертон, Питер О`Тул, Джон Гилгуд, Джино Черви, Паоло Стоппа, Доналд Уолфит, Дэвид Уэстон, Мартита Хант, Памела Браун, Сайн Филлипс, Феликс Эйлмер, Перси Херберт, Иниго Джексон, Найл МакГиннис, Кристофер Родс, Джон Филлипс, Фрэнк Петтинджелл, Вероника Венделл, Дженнифер Хилари, Дэвид Девенпорт, Хэмилтон Дайс, Питер Джефри, Майкл Миллер, Питер Проуз, Джек Тейлор
Продолжительность: 02:28:20
Качество видео: BDRip
Перевод: Многоголосый закадровый
Язык субтитров: Русские, английские
Вид субтитров: Вшитые

Дата мировой премьеры: 11 марта 1964
Дата выхода DVD релиза: 24 сентября 2009, «Cinema Prestige»

Видеокодек: MPEG-4 AVC/H.264
Битрейт видео: ~5420 Кбит/с
Размер кадра: 1920x802
Аудио 1: AC3 Русский 6.0 / 48 kHz / 384 kbps / 16-bit Профессиональный многоголосый (Лицензия, R5)
Аудио 2: AC3 Английский 6.0 / 48 kHz / 640 kbps / 16-bit Оригинал
Сэмпл: Ссылка

MediaInfo

Общее
Уникальный идентификатор : 223139886075649442123404927916195533957 (0xA7DF2DC8542C8425B8B2E61BCAC55485)
Полное имя : C:\Xvid4PSP\Becket .1964.BDRip.1080p.mkv
Формат : Matroska
Версия формата : Version 4 / Version 2
Размер файла : 6,82 Гбайт
Продолжительность : 2 ч. 28 м.
Общий поток : 6582 Кбит/сек
Название фильма : Becket (1964) BDRip [email protected]
Дата кодирования : UTC 2013-07-13 19:02:45
Программа кодирования : mkvmerge v6.3.0 ('You can't stop me!') built on Jun 28 2013 20:09:41
Библиотека кодирования : libebml v1.3.0 + libmatroska v1.4.0
Видео
Идентификатор : 1
Формат : AVC
Формат/Информация : Advanced Video Codec
Профиль формата : [url=mailto:[email protected]][email protected][/url]
Параметр CABAC формата : Да
Параметр ReFrames формата : 4 кадра
Идентификатор кодека : V_MPEG4/ISO/AVC
Продолжительность : 2 ч. 28 м.
Битрейт : 5427 Кбит/сек
Ширина : 1920 пикселей
Высота : 802 пикселя
Соотношение сторон : 2,40:1
Режим частоты кадров : Постоянный
Частота кадров : 23,976 кадра/сек
Цветовое пространство : YUV
Субдискретизация насыщенности : 4:2:0
Битовая глубина : 8 бит
Тип развёртки : Прогрессивная
Бит/(Пиксели*Кадры) : 0.147
Размер потока : 5,62 Гбайт (82%)
Заголовок : 1080p
Библиотека кодирования : x264 core 114 r1924 08d04a4
Настройки программы : cabac=1 / ref=4 / deblock=1:-3:-3 / analyse=0x3:0x113 / me=umh / subme=10 / psy=1 / psy_rd=0.90:0.00 / mixed_ref=1 / me_range=48 / chroma_me=1 / trellis=2 / 8x8dct=1 / cqm=0 / deadzone=21,11 / fast_pskip=1 / chroma_qp_offset=-2 / threads=12 / sliced_threads=0 / nr=0 / decimate=1 / interlaced=0 / constrained_intra=0 / bframes=8 / b_pyramid=2 / b_adapt=2 / b_bias=0 / direct=1 / weightb=1 / open_gop=0 / weightp=2 / keyint=250 / keyint_min=23 / scenecut=40 / intra_refresh=0 / rc_lookahead=40 / rc=crf / mbtree=0 / crf=18.0 / qcomp=0.60 / qpmin=0 / qpmax=51 / qpstep=4 / vbv_maxrate=50000 / vbv_bufsize=62500 / crf_max=0.0 / nal_hrd=none / ip_ratio=1.40 / pb_ratio=1.30 / aq=2:0.80
Язык : English
Default : Да
Forced : Нет
Аудио #1
Идентификатор : 2
Формат : AC-3
Формат/Информация : Audio Coding 3
Расширение режима : CM (complete main)
Параметр Endianness формата : Big
Идентификатор кодека : A_AC3
Продолжительность : 2 ч. 28 м.
Вид битрейта : Постоянный
Битрейт : 384 Кбит/сек
Каналы : 6 каналов
Расположение каналов : Front: L C R, Side: L R, LFE
Частота : 48,0 КГц
Битовая глубина : 16 бит
Метод сжатия : С потерями
Размер потока : 407 Мбайт (6%)
Заголовок : MVO
Язык : Russian
Default : Да
Forced : Нет
Аудио #2
Идентификатор : 3
Формат : AC-3
Формат/Информация : Audio Coding 3
Расширение режима : CM (complete main)
Параметр Endianness формата : Big
Идентификатор кодека : A_AC3
Продолжительность : 2 ч. 28 м.
Вид битрейта : Постоянный
Битрейт : 640 Кбит/сек
Каналы : 6 каналов
Расположение каналов : Front: L C R, Side: L R, LFE
Частота : 48,0 КГц
Битовая глубина : 16 бит
Метод сжатия : С потерями
Размер потока : 679 Мбайт (10%)
Заголовок : Original
Язык : English
Default : Нет
Forced : Нет
Текст #1
Идентификатор : 4
Формат : UTF-8
Идентификатор кодека : S_TEXT/UTF8
Идентификатор кодека/Информация : UTF-8 Plain Text
Язык : Russian
Default : Нет
Forced : Нет
Текст #2
Идентификатор : 5
Формат : UTF-8
Идентификатор кодека : S_TEXT/UTF8
Идентификатор кодека/Информация : UTF-8 Plain Text
Заголовок : SDH
Язык : English
Default : Нет
Forced : Нет
Меню
00:00:00.000 : en:Chapter 01
00:01:49.525 : en:Chapter 02
00:10:08.607 : en:Chapter 03
00:20:31.855 : en:Chapter 04
00:30:13.895 : en:Chapter 05
00:40:57.580 : en:Chapter 06
00:49:16.370 : en:Chapter 07
00:59:40.159 : en:Chapter 08
01:09:15.484 : en:Chapter 09
01:17:56.546 : en:Chapter 10
01:27:32.622 : en:Chapter 11
01:37:18.707 : en:Chapter 12
01:46:24.086 : en:Chapter 13
01:55:45.730 : en:Chapter 14
02:05:28.520 : en:Chapter 15
02:15:27.786 : en:Chapter 16
02:25:25.049 : en:Chapter 17
Скриншоты:
         
Время раздачи: 24/7
Вне форума [Профиль] [ЛС]
Показать сообщения:    
Ответить на тему

Текущее время: Сегодня 05:13

Часовой пояс: GMT + 3



Вы не можете начинать темы
Вы не можете отвечать на сообщения
Вы не можете редактировать свои сообщения
Вы не можете удалять свои сообщения
Вы не можете голосовать в опросах
Вы не можете прикреплять файлы к сообщениям
Вы не можете скачивать файлы