Сегодня идет свободное скачивание без начисления Download

Настоящая любовь / True Romance (Тони Скотт) (Триллер, Криминал 1993) BDRip [1080p]

Ответить на тему
 
Автор
Сообщение

Omen ®

Стаж: 4 года 1 месяц

Сообщений: 194390

Торрент-статистика

Пост 17-Июл-2013 18:45

[Цитировать]

Настоящая любовь / True Romance- Год выпуска: 1993
Жанр: Триллер, Криминал
Производство: США, Франция - Morgan Creek Productions, Davis Films, A Band Apart
Описание фильма:
Кларенс Уорли и Алабама Уитмэн познакомились и провели вместе ночь. Алабама призналась, что она делает первые шаги на трудном поприще «call-girl», то есть «девушки по вызову». Кларенс Уорли не был суперменом, однако, «навестив» сутенера Алабамы, оставил после себя два трупа — сутенера и его телохранителя…
Режиссер: Тони Скотт
Сценарист: Квентин Тарантино, Роджер Эвери
Актеры: Кристиан Слэйтер, Патриция Аркетт, Майкл Рапапорт, Джеймс Гандольфини, Бронсон Пиншо, Деннис Хоппер, Кристофер Уокен, Сол Рубинек, Гари Олдман, Крис Пенн
Продолжительность: 02:01:02
Качество видео: BDRip
Перевод: Многоголосый закадровый
Вид субтитров: Вшитые, отключаемые
Язык субтитров: Русский, английский

Дата мировой премьеры: 10 сентября 1993
Дата выхода DVD релиза: 7 мая 2009
Видеокодек: MPEG-4 AVC/H.264
Битрейт видео: ~7464 Kbps
Размер кадра: 1920x800
Аудио:
Аудио 1: |Русский| AC-3, 6 ch, 448 Kbps |Многоголосый закадровый, Киномания|
Аудио 2: |Русский| AC-3, 6 ch, 384 Kbps |Многоголосый закадровый, М. Чадов|
Аудио 3: |Английский| AC-3, 6 ch, 384 Kbps

Интересные факты

*Изначально сценарий «Настоящей любви» был частью огромного сценария, написанного Квентином Тарантино и Роджером Эвэри. Другая часть этого сценария впоследствии была использована для «Прирожденных убийц» (1994). В обоих фильмах Том Сайзмор сыграл полицейского.
*Квентин Тарантино продал сценарий фильма, для того чтобы найти средства для финансирования «Бешенных псов» (1992).
*Монолог Эллиота в сцене, где его останавливает полицейский, является импровизацией Бронсона Пинчота.
*Фильм, который смотрят Алабама и Кларенс в квартире — «Светлое будущее 2: Ураганный огонь» (1987) Джона Ву.
*Квентин Тарантино продал сценарий за $50,000, что согласно правилам WGA было минимальной суммой, которую мог получить сценарист за свою работу.
*Тарантино хотел, чтобы Роберт Форстер сыграл Коккотти, но роль досталась Кристоферу Уокену.
*По словам Денниса Хопера, в сцене диалога между Винченцо Коккотти (Кристофер Уокен) и Клиффордом Уорли (Деннис Хоппер) практически не было импровизации, актеры лишь добавили фразы про «баклажан» и «канталуп».
*Слово «[censored]» произносится по ходу действия фильма 225 раз.
*По словам Квентина Тарантино, за всё время работы над фильмом он ни разу не появился на съёмочной площадке.
*Изначально структура сценария была другой: первые две трети фильма должны были быть рассказаны в нелинейном порядке.
*Изначально Кларенс, Алабама, Дик и Эллиот должны были встретиться в зоопарке. Тони Скотт изменил место встречи на парк развлечений.
*Когда Кларенс и Алабама показывают кокаин Дику в комнате отеля, фильм, который идет по ТВ — «Беглец с того света» (a.k.a. «Корпорация «Бессмертие») (1992).
*Брэд Питт сам предложил идею того, чтобы его персонаж был «прикован» к дивану.
*Съёмки сцены на американских горках заняли два дня.
*Режиссером фильма мог стать Уильям Лустиг, снимающий фильмы категории «Б», но его кандидатуру отклонил Квентин Тарантино.
*Закадровый монолог Патриции Аркетт в начале фильма позаимствован из «Пустошей» (1973).
*Количество трупов: 21. Все они — мужчины, все погибли от пулевых ранений.
*По словам Гари Олдмана, образ Дрекселя он сымитировал с актера Уилли Уан Блада, с которым он позднее сыграл вместе в «Леоне» (1994).
*Джек Блэк исполнил роль-камео: билетер в кинотеатре. Но сцена с его участием была вырезана из фильма. Данную сцену можно найти на DVD в разделе «Удаленные сцены».
*В сцене телефонного разговора между Кларенсом и Диком позади Дика можно заметить постер фильма «My Blood Runs Cold» (1965).
*По словам Тони Скотта, Вэл Килмер хотел сыграть Кларенса.
*В последней сцене фильма в роли сына Алабамы и Кларенса снялся сын Патриции Аркетт, Энзо.
*После завершения съёмок Тони Скотт подарил Патриции Аркетт «Кадиллак», использованный для съёмок.
*Гримерам требовалось 8 часов на то, чтобы превратить Вэла Килмера в Элвиса Пресли. На счастье Килмера все сцены с его участием были отсняты за два дня.
Внимание! Дальнейший список фактов о фильме содержит спойлеры. Будьте осторожны.
*В первой версии сценария Дрексел убивал Большого Дона и Флойда Ди из-за того, что последний называл его «white boy». В данной сцене также отсутствовал Марти.
*Первоначальная концовка: Кларенс погибает в перестрелке в мотеле, Алабама остается вдовой. По словам Тарантино, впоследствии Алабама должна была познакомиться с мистером Белым (персонаж из «Бешенных псов» (1992)) и вместе с ним начать жить по другую сторону закона. В одной из сцен «Бешенных псов» мистера Белого спрашивают об Алабаме.

MediaInfo

Код:
General
Unique ID : 176462168900268267784280102757472248799 (0x84C160A4BC1FBC5580980B334EDDA3DF)
Complete name : F:\Movies\Настоящая любовь.mkv
Format : Matroska
Format version : Version 4 / Version 2
File size : 7.34 GiB
Duration : 2h 1mn
Overall bit rate : 8 680 Kbps
Encoded date : UTC 2013-07-15 09:26:57
Writing application : mkvmerge v6.3.0 ('You can't stop me!') built on Jun 28 2013 20:09:41
Writing library : libebml v1.3.0 + libmatroska v1.4.0
Video
ID : 1
Format : AVC
Format/Info : Advanced Video Codec
Format profile : [url=mailto:[email protected]][email protected][/url]
Format settings, CABAC : Yes
Format settings, ReFrames : 5 frames
Codec ID : V_MPEG4/ISO/AVC
Duration : 2h 1mn
Bit rate : 7 464 Kbps
Width : 1 920 pixels
Height : 800 pixels
Display aspect ratio : 2.40:1
Frame rate mode : Constant
Frame rate : 23.976 fps
Color space : YUV
Chroma subsampling : 4:2:0
Bit depth : 8 bits
Scan type : Progressive
Bits/(Pixel*Frame) : 0.203
Stream size : 6.16 GiB (84%)
Writing library : x264 core 128 r2216 198a7ea
Encoding settings : cabac=1 / ref=5 / deblock=1:-3:-3 / analyse=0x3:0x113 / me=umh / subme=10 / psy=1 / psy_rd=1.10:0.20 / mixed_ref=1 / me_range=48 / chroma_me=1 / trellis=2 / 8x8dct=1 / cqm=0 / deadzone=21,11 / fast_pskip=0 / chroma_qp_offset=1 / threads=6 / lookahead_threads=1 / sliced_threads=0 / nr=0 / decimate=1 / interlaced=0 / bluray_compat=0 / constrained_intra=0 / bframes=9 / b_pyramid=2 / b_adapt=2 / b_bias=0 / direct=3 / weightb=1 / open_gop=0 / weightp=2 / keyint=240 / keyint_min=23 / scenecut=40 / intra_refresh=0 / rc=2pass / mbtree=0 / bitrate=7464 / ratetol=1.0 / qcomp=0.80 / qpmin=0 / qpmax=69 / qpstep=4 / cplxblur=20.0 / qblur=0.5 / ip_ratio=1.25 / pb_ratio=1.25 / aq=2:0.90
Language : English
Default : Yes
Forced : No
Color primaries : BT.709
Transfer characteristics : BT.709
Matrix coefficients : BT.709
Audio #1
ID : 2
Format : AC-3
Format/Info : Audio Coding 3
Mode extension : CM (complete main)
Format settings, Endianness : Big
Codec ID : A_AC3
Duration : 2h 1mn
Bit rate mode : Constant
Bit rate : 448 Kbps
Channel(s) : 6 channels
Channel positions : Front: L C R, Side: L R, LFE
Sampling rate : 48.0 KHz
Bit depth : 16 bits
Compression mode : Lossy
Delay relative to video : 2s 18ms
Stream size : 388 MiB (5%)
Title : Киномания
Language : Russian
Default : Yes
Forced : No
Audio #2
ID : 3
Format : AC-3
Format/Info : Audio Coding 3
Mode extension : CM (complete main)
Format settings, Endianness : Big
Codec ID : A_AC3
Duration : 2h 1mn
Bit rate mode : Constant
Bit rate : 384 Kbps
Channel(s) : 6 channels
Channel positions : Front: L C R, Side: L R, LFE
Sampling rate : 48.0 KHz
Bit depth : 16 bits
Compression mode : Lossy
Stream size : 332 MiB (4%)
Title : М.Чадов
Language : Russian
Default : No
Forced : No
Audio #3
ID : 4
Format : AC-3
Format/Info : Audio Coding 3
Mode extension : CM (complete main)
Format settings, Endianness : Big
Codec ID : A_AC3
Duration : 2h 1mn
Bit rate mode : Constant
Bit rate : 384 Kbps
Channel(s) : 6 channels
Channel positions : Front: L C R, Side: L R, LFE
Sampling rate : 48.0 KHz
Bit depth : 16 bits
Compression mode : Lossy
Stream size : 332 MiB (4%)
Language : English
Default : No
Forced : No
Text #1
ID : 5
Format : UTF-8
Codec ID : S_TEXT/UTF8
Codec ID/Info : UTF-8 Plain Text
Language : Russian
Default : No
Forced : No
Text #2
ID : 6
Format : UTF-8
Codec ID : S_TEXT/UTF8
Codec ID/Info : UTF-8 Plain Text
Language : English
Default : No
Forced : No
Скриншоты:        
       
Вне форума [Профиль] [ЛС]
Похожие темы
Форум Тема Автор Торрент Отв. Посл. сообщение
./templates/default/images/folder_dl.gif Разножанровые коллекции книг и библиотеки Генрих Грец | История евреев от древнейших времён до настоящего [6 книг (тома 1-12)] (2010) [PDF, DJVU] Omen
0 | 1

0 | 291

2

2015-09-03 14:26
Omen Последнее
Показать сообщения:    
Ответить на тему

Текущее время: Сегодня 08:50

Часовой пояс: GMT + 3



Вы не можете начинать темы
Вы не можете отвечать на сообщения
Вы не можете редактировать свои сообщения
Вы не можете удалять свои сообщения
Вы не можете голосовать в опросах
Вы не можете прикреплять файлы к сообщениям
Вы не можете скачивать файлы