Сегодня идет свободное скачивание без начисления Download

Преступление и наказание / Crime et chatiment (1956) DVDRip [H.264]

Ответить на тему
 
Автор
Сообщение

UndegraundMen ®

Стаж: 4 года 1 месяц

Сообщений: 26522

Торрент-статистика

Пост 19-Июл-2013 17:00

[Цитировать]

Преступление и наказание / Crime et chatiment (1956) DVDRip- Год выпуска: 1956
Производство: Франция / Champs-Elysees Productions
Жанр: Драма-Режиссер: Жорж Лампен
Актеры: Робер Оссейн, Бернар Блие, Жан Габен, Марина Влади, Габи Морлэй, Улла Якобссон, Лино Вентура-Описание фильма:
Французская адаптация к 50-м годам прошлого века, столь близкого каждому русскому, хрестоматийного романа Ф.М. Достоевского.-Качество видео: DVDRip
Формат: MKV
Продолжительность: 01:43:37
Перевод: Двуголосый закадровый (СОЮЗ R5)
Субтитры: Французские-
Дата мировой премьеры: 27 ноября 1956
Дата выхода DVD релиза: 25 сентября 2008, «Союз-Видео»-Видеокодек: MPEG-4 AVC/H.264
Битрейт видео: ~1750 Кб/сек
Размер кадра: 768 x 576
Аудиокодек: AC3 (2ch)
Битрейт аудио: 192 Кб/сек

MediaInfo:

General
Unique ID : 174400691194120241332438931530084983127 (0x833459F20667CCFF8674B7805DBF2157)
Complete name : E:\Раздачи\Crime et chatiment.1956.DVDRip.mkv
Format : Matroska
Format version : Version 2
File size : 1.41 GiB
Duration : 1h 43mn
Overall bit rate : 1 944 Kbps
Encoded date : UTC 2013-07-18 16:36:52
Writing application : mkvmerge v5.8.0 ('No Sleep / Pillow') built on Sep 2 2012 15:37:04
Writing library : libebml v1.2.3 + libmatroska v1.3.0
Video
ID : 1
Format : AVC
Format/Info : Advanced Video Codec
Format profile : [url=mailto:High@L4.1]High@L4.1[/url]
Format settings, CABAC : Yes
Format settings, ReFrames : 5 frames
Codec ID : V_MPEG4/ISO/AVC
Duration : 1h 43mn
Bit rate : 1 750 Kbps
Width : 768 pixels
Height : 576 pixels
Display aspect ratio : 4:3
Frame rate mode : Constant
Frame rate : 25.000 fps
Color space : YUV
Chroma subsampling : 4:2:0
Bit depth : 8 bits
Scan type : Progressive
Bits/(Pixel*Frame) : 0.158
Stream size : 1.24 GiB (88%)
Writing library : x264 core 125 r2208 d9d2288
Encoding settings : cabac=1 / ref=5 / deblock=1:-2:-2 / analyse=0x3:0x131 / me=umh / subme=9 / psy=1 / psy_rd=1.00:0.10 / mixed_ref=1 / me_range=32 / chroma_me=1 / trellis=2 / 8x8dct=1 / cqm=0 / deadzone=21,11 / fast_pskip=0 / chroma_qp_offset=-3 / threads=12 / lookahead_threads=2 / sliced_threads=0 / nr=0 / decimate=1 / interlaced=0 / bluray_compat=0 / constrained_intra=0 / bframes=5 / b_pyramid=2 / b_adapt=0 / b_bias=0 / direct=1 / weightb=1 / open_gop=0 / weightp=2 / keyint=250 / keyint_min=25 / scenecut=40 / intra_refresh=0 / rc_lookahead=50 / rc=2pass / mbtree=1 / bitrate=1750 / ratetol=1.0 / qcomp=0.60 / qpmin=0 / qpmax=69 / qpstep=4 / cplxblur=20.0 / qblur=0.5 / ip_ratio=1.40 / aq=1:1.00
Default : Yes
Forced : No
Audio
ID : 2
Format : AC-3
Format/Info : Audio Coding 3
Mode extension : CM (complete main)
Format settings, Endianness : Big
Codec ID : A_AC3
Duration : 1h 43mn
Bit rate mode : Constant
Bit rate : 192 Kbps
Channel(s) : 2 channels
Channel positions : Front: L R
Sampling rate : 48.0 KHz
Bit depth : 16 bits
Compression mode : Lossy
Stream size : 142 MiB (10%)
Default : Yes
Forced : No
Скриншоты:        
Вне форума [Профиль] [ЛС]
Похожие темы
Форум Тема Автор Торрент Отв. Посл. сообщение
./templates/default/images/folder_dl.gif Новинки (HD|DVD|BD|WEB|TV|SAT|PDTV|-Rip) Преступник / Criminal (2016) BDRip [H.264/1080p] XP1971
1 | 0

0 | 819

19

2016-07-14 15:28
XP1971 Последнее
./templates/default/images/folder_dl.gif ЖЗЛ. Биографии. Мемуары. Историография. Фрэнк Абигнейл | Поймай меня, если сможешь. Реальная история самого неуловимого мошенника за всю историю преступлений (2017) [FB2] }{@R0N
0 | 1

0 | 9105

0

2017-03-12 14:49
}{@R0N Последнее
Показать сообщения:    
Ответить на тему

Текущее время: Сегодня 10:55

Часовой пояс: GMT + 3



Вы не можете начинать темы
Вы не можете отвечать на сообщения
Вы не можете редактировать свои сообщения
Вы не можете удалять свои сообщения
Вы не можете голосовать в опросах
Вы не можете прикреплять файлы к сообщениям
Вы не можете скачивать файлы