Сегодня идет свободное скачивание без начисления Download

Уличный мусор / Street Trash (Дж. Майкл Муро) (Ужасы, Комедия 1987) HDRip [H.264]

Ответить на тему
 
Автор
Сообщение

Omen ®

Стаж: 4 года 1 месяц

Сообщений: 194359

Торрент-статистика

Пост 19-Июл-2013 17:17

[Цитировать]

Уличный мусор / Street Trash -«Things in New York are about to go down the toilet...»- Год выпуска: 1987
Жанр: Ужасы, Комедия
Производство: США/Street Trash Joint Venture
Описание фильма:
Все началось с того, что один из торговцев спиртным выпустил в продажу коньяк «Гадюка». После чего с местными любителями крепких спиртных напитков стали происходить малоприятные вещи.
Режиссер: Дж. Майкл Муро
Сценарий: Рой Фрамкес, Дж. Майкл Муро
Продюсер: Рой Фрамкес, Фрэнк М. Фарел, Эдвард Муро ст.
Актеры: Майк Лэки, Билл Чепил, Вик Ното, Марк Сферразза, Джейн Аракава, Николь Поттер, Пэт Райан, Кларенз Джармон, Бернард Перлман, Мириам Цукер
Продолжительность: 01:41:06
Качество видео: HDRip
Перевод: Одноголосый закадровый (Евгений Гранкин)

Дата мировой премьеры: 24 июня 1987
Видеокодек: MPEG-4 AVC/H.264
Битрейт видео: ~1872Кбит/сек
Размер кадра: 720x400
Аудиокодек: AC3 2.0
Битрейт аудио: 192 kbps

MediaInfo:

Общее
Уникальный идентификатор : 198915963206022066759413047262095697557 (0x95A5D22CC304D90F97F51CAFD9656695)
Полное имя : H:\Downloads\Уличный мусор.mkv
Формат : Matroska
Размер файла : 1,46 Гбайт
Продолжительность : 1 ч. 41 м.
Общий поток : 2065 Кбит/сек
Название фильма : Уличный мусор / Street Trash (1987)
Дата кодирования : UTC 2013-07-17 09:03:21
Программа кодирования : mkvmerge v6.0.0 ('Coming Up For Air') built on Jan 20 2013 09:52:00
Библиотека кодирования : libebml v1.3.0 + libmatroska v1.4.0
Видео
Идентификатор : 1
Формат : AVC
Формат/Информация : Advanced Video Codec
Профиль формата : [url=mailto:[email protected]][email protected][/url]
Параметр CABAC формата : Да
Параметр ReFrames формата : 8 кадров
Идентификатор кодека : V_MPEG4/ISO/AVC
Продолжительность : 1 ч. 41 м.
Битрейт : 1872 Кбит/сек
Ширина : 720 пикс.
Высота : 400 пикс.
Соотношение сторон : 16:9
Частота кадров : 23,976 кадр/сек
Цветовое пространство : YUV
Подвыборка цветности : 4:2:0
Битовая глубина : 8 бит
Тип развёртки : Прогрессивная
Бит/(Пиксели*Кадры) : 0.271
Размер потока : 1,29 Гбайт (89%)
Заголовок : Street Trash
Библиотека кодирования : x264 core 125 r2208 d9d2288
Настройки программы : cabac=1 / ref=8 / deblock=1:-1:-1 / analyse=0x3:0x133 / me=umh / subme=9 / psy=1 / psy_rd=1.00:0.10 / mixed_ref=1 / me_range=32 / chroma_me=1 / trellis=2 / 8x8dct=1 / cqm=0 / deadzone=21,11 / fast_pskip=0 / chroma_qp_offset=-3 / threads=6 / lookahead_threads=1 / sliced_threads=0 / nr=0 / decimate=1 / interlaced=0 / bluray_compat=0 / constrained_intra=0 / bframes=3 / b_pyramid=2 / b_adapt=2 / b_bias=0 / direct=3 / weightb=1 / open_gop=0 / weightp=2 / keyint=250 / keyint_min=25 / scenecut=40 / intra_refresh=0 / rc_lookahead=60 / rc=2pass / mbtree=1 / bitrate=1872 / ratetol=1.0 / qcomp=0.60 / qpmin=10 / qpmax=51 / qpstep=4 / cplxblur=20.0 / qblur=0.5 / ip_ratio=1.40 / aq=1:1.00
Язык : English
Аудио
Идентификатор : 2
Формат : AC-3
Формат/Информация : Audio Coding 3
Расширение режима : CM (complete main)
Идентификатор кодека : A_AC3
Продолжительность : 1 ч. 41 м.
Вид битрейта : Постоянный
Битрейт : 192 Кбит/сек
Каналы : 2 канала
Расположение каналов : Front: L R
Частота : 48,0 КГц
Битовая глубина : 16 бит
Метод сжатия : С потерями
Размер потока : 139 Мбайт (9%)
Заголовок : Авторский одноголосый (Евгений Гранкин)
Язык : Russian
Скриншоты:                    
Вне форума [Профиль] [ЛС]
Показать сообщения:    
Ответить на тему

Текущее время: Сегодня 05:13

Часовой пояс: GMT + 3



Вы не можете начинать темы
Вы не можете отвечать на сообщения
Вы не можете редактировать свои сообщения
Вы не можете удалять свои сообщения
Вы не можете голосовать в опросах
Вы не можете прикреплять файлы к сообщениям
Вы не можете скачивать файлы