Сегодня идет свободное скачивание без начисления Download

Девичий заговор / Rzeczpospolita babska (Хероним Пшибыл) (Комедия 1969) DVDRip

Ответить на тему
 
Автор
Сообщение

Omen ®

Стаж: 4 года 1 месяц

Сообщений: 194394

Торрент-статистика

Пост 19-Июл-2013 17:20

[Цитировать]

Девичий заговор / Rzeczpospolita babska - Год выпуска: 1969
Страна: Польша
Жанр: Комедия
Описание фильма:
Весна 1945 года. В старинную усадьбу на Воссоединённых землях (Западная Польша) приезжает группа демобилизованных девушек. Они носят военную форму, живут по уставу и решили не обращать никакого внимания на представителей противоположного пола. А это не так-то просто, потому что неподалёку от "женской" усадьбы расположилась группа демобилизованных мужчин под командованием симпатичного капитана Сташека...
Режиссер: Хероним Пшибыл
Актеры: Александра Заверушанка, Зофья Мерле, Ян Махульский, Кристина Шиманенко, Ирэна Карель, Веслава Квасьневска, Тереза Липовска, Кристина Сенкевич, Эльжбета Старостецка, Александр Фогель
Продолжительность: 01:36:40
Качество видео: DVDRip
Перевод: Дублированный
Доп. информация: В местах вырезанных в советском прокате одноголосый перевод. На 60-й минуте кратковременный рассинхрон звука.


Видеокодек: Xvid
Битрейт видео: ~1906kbps
Размер кадра: 720x496
Аудиокодек: MP3
Битрейт аудио: 102kbp

MediaInfo:

General
Complete name : Девичий заговор.avi
Format : AVI
Format/Info : Audio Video Interleave
File size : 1.37 GiB
Duration : 1h 36mn
Overall bit rate : 2 022 Kbps
Writing application : VirtualDubMod 1.5.4.1 (build 2178/release)
Writing library : VirtualDubMod build 2178/release
Video
ID : 0
Format : MPEG-4 Visual
Format profile : Advanced [email protected]
Format settings, BVOP : 1
Format settings, QPel : No
Format settings, GMC : No warppoints
Format settings, Matrix : Custom
Codec ID : XVID
Codec ID/Hint : XviD
Duration : 1h 36mn
Bit rate : 1 907 Kbps
Width : 720 pixels
Height : 496 pixels
Display aspect ratio : 3:2
Frame rate : 25.000 fps
Color space : YUV
Chroma subsampling : 4:2:0
Bit depth : 8 bits
Scan type : Progressive
Compression mode : Lossy
Bits/(Pixel*Frame) : 0.214
Stream size : 1.29 GiB (94%)
Writing library : XviD 1.2.1 (UTC 2008-12-04)
Audio
ID : 1
Format : MPEG Audio
Format version : Version 1
Format profile : Layer 3
Mode : Joint stereo
Mode extension : MS Stereo
Codec ID : 55
Codec ID/Hint : MP3
Duration : 1h 36mn
Bit rate mode : Variable
Bit rate : 102 Kbps
Nominal bit rate : 128 Kbps
Channel(s) : 2 channels
Sampling rate : 48.0 KHz
Compression mode : Lossy
Stream size : 70.8 MiB (5%)
Alignment : Aligned on interleaves
Interleave, duration : 24 ms (0.60 video frame)
Interleave, preload duration : 180 ms
Writing library : LAME3.97
Encoding settings : -m j -V 4 -q 2 -lowpass 17 --abr 128
Скриншоты:
       
Вне форума [Профиль] [ЛС]
Показать сообщения:    
Ответить на тему

Текущее время: Сегодня 02:55

Часовой пояс: GMT + 3



Вы не можете начинать темы
Вы не можете отвечать на сообщения
Вы не можете редактировать свои сообщения
Вы не можете удалять свои сообщения
Вы не можете голосовать в опросах
Вы не можете прикреплять файлы к сообщениям
Вы не можете скачивать файлы