Сегодня идет свободное скачивание без начисления Download

По ту сторону желания / Beyond Desire / The Last American Elvis (Доминик Отенен-Жирар) (Боевик, Триллер 1995) DVDRip

Ответить на тему
 
Автор
Сообщение

Omen ®

Стаж: 4 года 1 месяц

Сообщений: 194382

Торрент-статистика

Пост 20-Июл-2013 16:18

[Цитировать]

По ту сторону желания
Beyond Desire / The Last American Elvis
-«Lust Can Be Deadly»- Производство: США, Beyond Pictures Inc., Parallel Pictures
Год выпуска: 1995
Жанр: Боевик, Триллер
Описание фильма:
Его зовут Рэй. Он 14 лет провел в тюрьме из-за несправедливо вынесенного приговора за убийство, но он не знает, кто его подставил. Все эти годы он ждал, чтобы отомстить и восстановить правосудие.
По дороге в Лас-Вегас он знакомится с Ритой — непостижимой, сексуальной и очень соблазнительной молодой женщиной, но встреча эта неслучайна...
Режиссер: Доминик Отенен-Жирар
Актеры: Уильям Форсайт, Кари Вурер, Лео Росси, Шэрон Фаррелл, Билли Бастиани, Дэннис Хейден, Фред Доумани мл., Наталья Лапина, Расселл Кристофер Ганьон, Тина Катарина Антман.
Продолжительность: 01:23:32
Перевод: Одноголосый закадровый
Автор перевода: А. Гаврилов

Дата мировой премьеры: 13.07.1995
Качество видео: DVDRip
Видео: 704x544 (1.29:1), 25 fps, XviD build 50 ~1420 kbps avg, 0.15 bit/pixel
Аудио 1: 48 kHz, AC3 Dolby Digital, 1/0 (C) ch, ~96 kbps - русский
Аудио 2: 48 kHz, MPEG Layer 3, 2 ch, ~128.00 kbps avg - английский

MediaInfo

General
Complete name : D:\Public\Beyond.Desire.1995.DVDRip.XviD.avi
Format : AVI
Format/Info : Audio Video Interleave
File size : 992 MiB
Duration : 1h 23mn
Overall bit rate : 1 660 Kbps
Writing application : VirtualDubMod 1.5.10.2 (build 2542/release)
Writing library : VirtualDubMod build 2542/release
Video
ID : 0
Format : MPEG-4 Visual
Format profile : Advanced [email protected]
Format settings, BVOP : 2
Format settings, QPel : No
Format settings, GMC : No warppoints
Format settings, Matrix : Default (MPEG)
Codec ID : XVID
Codec ID/Hint : XviD
Duration : 1h 23mn
Bit rate : 1 421 Kbps
Width : 704 pixels
Height : 544 pixels
Display aspect ratio : 1.294
Frame rate : 25.000 fps
Color space : YUV
Chroma subsampling : 4:2:0
Bit depth : 8 bits
Scan type : Progressive
Compression mode : Lossy
Bits/(Pixel*Frame) : 0.148
Stream size : 849 MiB (86%)
Writing library : XviD 1.2.1 (UTC 2008-12-04)
Audio #1
ID : 1
Format : AC-3
Format/Info : Audio Coding 3
Mode extension : CM (complete main)
Codec ID : 2000
Duration : 1h 23mn
Bit rate mode : Constant
Bit rate : 96.0 Kbps
Channel(s) : 1 channel
Channel positions : Front: C
Sampling rate : 48.0 KHz
Bit depth : 16 bits
Compression mode : Lossy
Stream size : 57.4 MiB (6%)
Alignment : Split accross interleaves
Interleave, duration : 40 ms (1.00 video frame)
Interleave, preload duration : 500 ms
Audio #2
ID : 2
Format : MPEG Audio
Format version : Version 1
Format profile : Layer 3
Codec ID : 55
Codec ID/Hint : MP3
Duration : 1h 23mn
Bit rate mode : Constant
Bit rate : 128 Kbps
Channel(s) : 2 channels
Sampling rate : 48.0 KHz
Compression mode : Lossy
Stream size : 76.5 MiB (8%)
Alignment : Aligned on interleaves
Interleave, duration : 40 ms (1.00 video frame)
Interleave, preload duration : 504 ms
Writing library : LAME3.98r
Encoding settings : -m s -V 4 -q 2 -lowpass 17 -b 128
Скриншоты:
         
Вне форума [Профиль] [ЛС]
Показать сообщения:    
Ответить на тему

Текущее время: Сегодня 22:18

Часовой пояс: GMT + 3



Вы не можете начинать темы
Вы не можете отвечать на сообщения
Вы не можете редактировать свои сообщения
Вы не можете удалять свои сообщения
Вы не можете голосовать в опросах
Вы не можете прикреплять файлы к сообщениям
Вы не можете скачивать файлы