Сегодня идет свободное скачивание без начисления Download

Безжалостные люди / Ruthless People (Джим Абрахамс, Дэвид Цукер, Джерри Цукер) (Комедия, Криминал 1986) HDTVRip [720p]

Ответить на тему
 
Автор
Сообщение

Omen ®

Стаж: 4 года 1 месяц

Сообщений: 194359

Торрент-статистика

Пост 20-Июл-2013 19:00

[Цитировать]

Безжалостные люди / Ruthless People - Год выпуска: 1986
Жанр: Комедия, Криминал
Описание фильма:
Самой заветной мечтой Сэма Стоуна было избавиться от своей сварливой женушки. И вот его день настал: жену похитили с целью получить кругленькую сумму.
Естественно, что у Сэма даже в мыслях нет расставаться со своими кровными в обмен на «любимую» супругу. Но он еще не подозревает, что его жена обладает способностью наладить дружеские отношения даже с бандитами.
Режиссер: Джим Абрахамс, Дэвид Цукер, Джерри Цукер
Актеры: Дэнни ДеВито, Бетт Мидлер, Джадж Райнхолд, Хелен Слейтер, Анита Моррис, Билл Пуллман, Уильям Дж. Шиллинг, Арт Эванс, Кларенс Фелдер, Дж.Э. Фримен
Продолжительность: 01:33:57
Качество видео: HDTVRip
Перевод: Многоголосый закадровый ,Авторский одноголосый

Дата мировой премьеры: 27.06.86
Видеокодек: MPEG-4 AVC/H.264
Битрейт видео: ~7 997 Kbps
Размер кадра: 1280x694
  • Аудио:
  • Audio#1 : Rus ,AC3 ,48.0 KHz ,2 channels ,192 Kbps [MVO OPT]
  • Audio#2 : Rus ,AC3 ,48.0 KHz ,5.1 channels ,448 Kbps [MVO ТВЦ]
  • Audio#3 : Rus ,AC3 ,48.0 KHz ,5.1 channels ,448 Kbps [AVO А.Михалёв]
  • Audio#4 : Rus ,AC3 ,48.0 KHz ,5.1 channels ,384 Kbps [AVO В.Завгородний] (Внимание!!!Ненормативная лексика!)
  • Audio#5 : Rus ,AC3 ,48.0 KHz ,2 channels ,192 Kbps [AVO Л.Володарский]
  • Audio#6 : Eng ,AC3 ,48.0 KHz ,5.1 channels ,384 Kbps [Original]

MediaInfo

General
Unique ID : 184168242806841968496940067540392639793 (0x8A8D836BBCB245BB8FA0CCA179BA7D31)
Complete name : D:\Download\Ruthless.People.1986.HDTV.720p.mkv
Format : Matroska
Format version : Version 4 / Version 2
File size : 6.59 GiB
Duration : 1h 34mn
Overall bit rate : 10.0 Mbps
Encoded date : UTC 2013-07-08 07:11:50
Writing application : mkvmerge v6.2.0 ('Promised Land') built on Apr 28 2013 12:22:01
Writing library : libebml v1.3.0 + libmatroska v1.4.0
Video
ID : 1
Format : AVC
Format/Info : Advanced Video Codec
Format profile : [url=mailto:[email protected]][email protected][/url]
Format settings, CABAC : Yes
Format settings, ReFrames : 9 frames
Codec ID : V_MPEG4/ISO/AVC
Duration : 1h 34mn
Bit rate : 7 997 Kbps
Width : 1 280 pixels
Height : 694 pixels
Display aspect ratio : 1.85:1
Frame rate mode : Constant
Frame rate : 23.976 fps
Color space : YUV
Chroma subsampling : 4:2:0
Bit depth : 8 bits
Scan type : Progressive
Bits/(Pixel*Frame) : 0.375
Stream size : 5.12 GiB (78%)
Writing library : x264 core 118 r2085kMod 8a62835
Encoding settings : cabac=1 / ref=9 / deblock=1:-3:-3 / analyse=0x3:0x133 / me=umh / subme=10 / psy=1 / fade_compensate=0.00 / psy_rd=1.10:0.15 / mixed_ref=1 / me_range=32 / chroma_me=1 / trellis=2 / 8x8dct=1 / cqm=0 / deadzone=21,11 / fast_pskip=0 / chroma_qp_offset=-3 / threads=6 / sliced_threads=0 / nr=0 / decimate=1 / interlaced=0 / bluray_compat=0 / constrained_intra=0 / bframes=9 / b_pyramid=2 / b_adapt=2 / b_bias=0 / direct=3 / weightb=1 / open_gop=0 / weightp=2 / keyint=250 / keyint_min=23 / scenecut=40 / intra_refresh=0 / rc_lookahead=100 / rc=2pass / mbtree=1 / bitrate=7997 / ratetol=1.0 / qcomp=0.70 / qpmin=0 / qpmax=69 / qpstep=4 / cplxblur=20.0 / qblur=0.5 / vbv_maxrate=50000 / vbv_bufsize=62500 / nal_hrd=none / ip_ratio=1.40 / aq=1:0.85
Language : English
Default : Yes
Forced : No
Audio #1
ID : 2
Format : AC-3
Format/Info : Audio Coding 3
Mode extension : CM (complete main)
Format settings, Endianness : Big
Codec ID : A_AC3
Duration : 1h 34mn
Bit rate mode : Constant
Bit rate : 192 Kbps
Channel(s) : 2 channels
Channel positions : Front: L R
Sampling rate : 48.0 KHz
Bit depth : 16 bits
Compression mode : Lossy
Stream size : 129 MiB (2%)
Title : MVO ОРТ
Language : Russian
Default : Yes
Forced : No
Audio #2
ID : 3
Format : AC-3
Format/Info : Audio Coding 3
Mode extension : CM (complete main)
Format settings, Endianness : Big
Codec ID : A_AC3
Duration : 1h 34mn
Bit rate mode : Constant
Bit rate : 448 Kbps
Channel(s) : 6 channels
Channel positions : Front: L C R, Side: L R, LFE
Sampling rate : 48.0 KHz
Bit depth : 16 bits
Compression mode : Lossy
Stream size : 301 MiB (4%)
Title : MVO ТВЦ
Language : Russian
Default : No
Forced : No
Audio #3
ID : 4
Format : AC-3
Format/Info : Audio Coding 3
Mode extension : CM (complete main)
Format settings, Endianness : Big
Codec ID : A_AC3
Duration : 1h 34mn
Bit rate mode : Constant
Bit rate : 448 Kbps
Channel(s) : 6 channels
Channel positions : Front: L C R, Side: L R, LFE
Sampling rate : 48.0 KHz
Bit depth : 16 bits
Compression mode : Lossy
Stream size : 301 MiB (4%)
Title : AVO А.Михалёв
Language : Russian
Default : No
Forced : No
Audio #4
ID : 5
Format : AC-3
Format/Info : Audio Coding 3
Mode extension : CM (complete main)
Format settings, Endianness : Big
Codec ID : A_AC3
Duration : 1h 34mn
Bit rate mode : Constant
Bit rate : 384 Kbps
Channel(s) : 6 channels
Channel positions : Front: L C R, Side: L R, LFE
Sampling rate : 48.0 KHz
Bit depth : 16 bits
Compression mode : Lossy
Stream size : 258 MiB (4%)
Title : AVO В.Завгородний
Language : Russian
Default : No
Forced : No
Audio #5
ID : 6
Format : AC-3
Format/Info : Audio Coding 3
Mode extension : CM (complete main)
Format settings, Endianness : Big
Codec ID : A_AC3
Duration : 1h 34mn
Bit rate mode : Constant
Bit rate : 192 Kbps
Channel(s) : 2 channels
Channel positions : Front: L R
Sampling rate : 48.0 KHz
Bit depth : 16 bits
Compression mode : Lossy
Stream size : 129 MiB (2%)
Title : AVO Л.Володарский
Language : Russian
Default : No
Forced : No
Audio #6
ID : 7
Format : AC-3
Format/Info : Audio Coding 3
Mode extension : CM (complete main)
Format settings, Endianness : Big
Codec ID : A_AC3
Duration : 1h 34mn
Bit rate mode : Constant
Bit rate : 384 Kbps
Channel(s) : 6 channels
Channel positions : Front: L C R, Side: L R, LFE
Sampling rate : 48.0 KHz
Bit depth : 16 bits
Compression mode : Lossy
Stream size : 258 MiB (4%)
Title : Original
Language : English
Default : No
Forced : No
Скриншоты:          
Вне форума [Профиль] [ЛС]
Показать сообщения:    
Ответить на тему

Текущее время: Сегодня 01:18

Часовой пояс: GMT + 3



Вы не можете начинать темы
Вы не можете отвечать на сообщения
Вы не можете редактировать свои сообщения
Вы не можете удалять свои сообщения
Вы не можете голосовать в опросах
Вы не можете прикреплять файлы к сообщениям
Вы не можете скачивать файлы