Сегодня идет свободное скачивание без начисления Download

Крамер против Крамера / Kramer vs. Kramer (Роберт Бентон) (Драма 1979) BDRip

Ответить на тему
 
Автор
Сообщение

Omen ®

Стаж: 4 года 1 месяц

Сообщений: 194390

Торрент-статистика

Пост 21-Июл-2013 22:14

[Цитировать]

Крамер против Крамера
Kramer vs. Kramer
- Год выпуска: 1979
Производство: США
Жанр: Драма
Перевод: Дублированный (Ленфильм), Многоголосый закадровый
Субтитры: Отсутствуют
Режиссер: Роберт Бентон
Актеры: Дастин Хоффман, Мэрил Стрип, Джейн Александр, Джастин Генри, Ховард Дафф, Джордж Коу, ДжоБет Уильямс, Билл Моор, Хоуланд Чемберлен, Джек Рэмэдж, Джесс Осуна, Николас Хорманн
Описание фильма:
Тед Крамер, целиком посвятив себя карьере, не замечает того, что происходит в собственной семье. Поэтому от него уходит жена, оставляя незадачливого отца заботиться о шестилетнем сыне. Теперь Крамер старший должен выступить в непривычной роли: ему предстоит ухаживать за Крамером младшим, проводить с ним больше времени и, наконец, попытаться проникнуть в хрупкий и ранимый мир ребенка. Но в тот момент, когда отец и сын становятся настоящими друзьями, раскаявшаяся мать возвращается. И она хочет забрать мальчика.

Продолжительность: 01:44:48
Качество видео: BDRip
Видеокодек: XviD
Битрейт видео: ~1870 kbps
Размер кадра: 704x384
Аудио 1: 48 kHz, AC3, 2/0 (L,R) ch, 192 kbps (DUB)
Аудио 2: 48 kHz, AC3, 3/2 (L,C,R,l,r) + LFE ch, 448 kbps (MVO)
Аудио 3: 48 kHz, AC3, 3/2 (L,C,R,l,r) + LFE ch, 448 kbps (ENG)

MediaInfo

Полное имя : D:\Kramer.protiv.Kramera.1979..avi
Формат : AVI
Формат/Информация : Audio Video Interleave
Профиль формата : OpenDML
Размер файла : 2,18 Гбайт
Продолжительность : 1 ч. 44 м.
Общий поток : 2982 Кбит/сек
Название фильма : Крамер против Крамера / Kramer vs. Kramer (1979) BDRip
Режиссёр : sociolog_melvas
Жанр : драма
Программа кодирования : VirtualDubMod 1.5.10.2 (build 2540/release)
Видео
Идентификатор : 0
Формат : MPEG-4 Visual
Профиль формата : Advanced [email protected]
Параметр BVOP формата : 1
Параметр QPel формата : Нет
Параметр GMC формата : Без точки перехода
Параметр матрицы формата : Выборочная
Идентификатор кодека : XVID
Идентификатор кодека/Подсказка : XviD
Продолжительность : 1 ч. 44 м.
Битрейт : 1870 Кбит/сек
Ширина : 704 пикселя
Высота : 384 пикселя
Соотношение сторон : 1,85:1
Частота кадров : 23,976 кадра/сек
Цветовое пространство : YUV
Субдискретизация насыщенности : 4:2:0
Битовая глубина : 8 бит
Тип развёртки : Прогрессивная
Метод сжатия : С потерями
Бит/(Пиксели*Кадры) : 0.289
Размер потока : 1,37 Гбайт (63%)
Библиотека кодирования : XviD 64
Аудио #1
Идентификатор : 1
Формат : AC-3
Формат/Информация : Audio Coding 3
Расширение режима : CM (complete main)
Параметр Endianness формата : Big
Идентификатор кодека : 2000
Продолжительность : 1 ч. 44 м.
Вид битрейта : Постоянный
Битрейт : 192 Кбит/сек
Каналы : 2 канала
Расположение каналов : Front: L R
Частота : 48,0 КГц
Битовая глубина : 16 бит
Метод сжатия : С потерями
Размер потока : 144 Мбайт (6%)
Выравнивание : Разделение по промежуткам
Продолжительность промежутка : 42 мс. (1,00 видеокадр)
Время предзагрузки промежутка : 500 мс.
Аудио #2
Идентификатор : 2
Формат : AC-3
Формат/Информация : Audio Coding 3
Расширение режима : CM (complete main)
Параметр Endianness формата : Big
Идентификатор кодека : 2000
Продолжительность : 1 ч. 44 м.
Вид битрейта : Постоянный
Битрейт : 448 Кбит/сек
Каналы : 6 каналов
Расположение каналов : Front: L C R, Side: L R, LFE
Частота : 48,0 КГц
Битовая глубина : 16 бит
Метод сжатия : С потерями
Размер потока : 336 Мбайт (15%)
Выравнивание : Разделение по промежуткам
Продолжительность промежутка : 42 мс. (1,00 видеокадр)
Время предзагрузки промежутка : 500 мс.
Аудио #3
Идентификатор : 3
Формат : AC-3
Формат/Информация : Audio Coding 3
Расширение режима : CM (complete main)
Параметр Endianness формата : Big
Идентификатор кодека : 2000
Продолжительность : 1 ч. 44 м.
Вид битрейта : Постоянный
Битрейт : 448 Кбит/сек
Каналы : 6 каналов
Расположение каналов : Front: L C R, Side: L R, LFE
Частота : 48,0 КГц
Битовая глубина : 16 бит
Метод сжатия : С потерями
Размер потока : 336 Мбайт (15%)
Выравнивание : Разделение по промежуткам
Продолжительность промежутка : 42 мс. (1,00 видеокадр)
Время предзагрузки промежутка : 500 мс.
Скриншоты:
       
       
Вне форума [Профиль] [ЛС]
Показать сообщения:    
Ответить на тему

Текущее время: Сегодня 17:23

Часовой пояс: GMT + 3



Вы не можете начинать темы
Вы не можете отвечать на сообщения
Вы не можете редактировать свои сообщения
Вы не можете удалять свои сообщения
Вы не можете голосовать в опросах
Вы не можете прикреплять файлы к сообщениям
Вы не можете скачивать файлы