Сегодня идет свободное скачивание без начисления Download

Гудзонский ястреб / Hudson Hawk (Майкл Леманн) (Боевик, комедия, приключения 1991) HDRip

Ответить на тему
 
Автор
Сообщение

Omen ®

Стаж: 4 года 1 месяц

Сообщений: 194394

Торрент-статистика

Пост 22-Июл-2013 21:19

[Цитировать]

Гудзонский ястреб
Hudson Hawk
-«Watch your step. Hold your breath. Hang on for dear life. And catch...the hawk.»
- Год выпуска: 1991
Производство: США / Ace Bone, Silver Pictures, TriStar Pictures..
Жанр: Боевик, комедия, приключения-Описание фильма: «Гудзонский Ястреб» — прозвище непревзойденного вора Эдди, который может открыть любой сейф за считанные секунды. Выйдя из тюрьмы, король кражи решает уйти на заслуженный отдых. Но слишком многие на свободе заинтересованы в его криминальном таланте.
С помощью шантажа коварные злоумышленники заставляют Эдди совершить ограбление века: он должен похитить три шедевра Леонардо Да Винчи из самых охраняемых музеев мира всего за несколько дней! «Гудзонский Ястреб» снова отправляется на охоту, но на этот раз в бескрайнем небе он не одинок…-Режиссер: Майкл Леманн
Продюсер: Джоэл Силвер, Майкл Драйхёрст, Роберт Крафт
Актеры: Брюс Уиллис, Дэнни Айелло, Энди МакДауэлл, Джеймс Коберн, Ричард Э. Грант, Сандра Бернхард, Дональд Бертон, Дон Харви, Дэвид Карузо, Эндрю Бринярски и др.-Продолжительность: 01:39:55
Качество видео: HDRip
Перевод: Дублированный
Язык субтитров: отсутствуют
- -Дата мировой премьеры: ........................................24 мая 1991
Дата выхода релиза на DVD: ..................................28 октября 2010, «Columbia/Sony»-Видео: MPEG4, XviD, 624x352 (16:9), 23.976 fps, 905 Kbps (0.172 bit/pixel)
Аудио: MP3, 48.0 KHz, 2 ch, 128 Kbps, CBR
-

MediaInfo

General
Complete name : D:\Видео\Hudson.Hawk.1991_HDRip.avi
Format : AVI
Format/Info : Audio Video Interleave
File size : 745 MiB
Duration : 1h 39mn
Overall bit rate : 1 042 Kbps
Writing application : VirtualDubMod 1.5.10.3 | www.virtualdub-fr.org || (build 2550/release)
Writing library : VirtualDubMod build 2550/release
Video
ID : 0
Format : MPEG-4 Visual
Format profile : Advanced [email protected]
Format settings, BVOP : 1
Format settings, QPel : No
Format settings, GMC : No warppoints
Format settings, Matrix : Custom
Codec ID : XVID
Codec ID/Hint : XviD
Duration : 1h 39mn
Bit rate : 905 Kbps
Width : 624 pixels
Height : 352 pixels
Display aspect ratio : 16:9
Frame rate : 23.976 fps
Color space : YUV
Chroma subsampling : 4:2:0
Bit depth : 8 bits
Scan type : Progressive
Compression mode : Lossy
Bits/(Pixel*Frame) : 0.172
Stream size : 647 MiB (87%)
Writing library : XviD 73
Audio
ID : 1
Format : MPEG Audio
Format version : Version 1
Format profile : Layer 3
Codec ID : 55
Codec ID/Hint : MP3
Duration : 1h 39mn
Bit rate mode : Constant
Bit rate : 128 Kbps
Channel(s) : 2 channels
Sampling rate : 48.0 KHz
Compression mode : Lossy
Stream size : 91.5 MiB (12%)
Alignment : Aligned on interleaves
Interleave, duration : 42 ms (1.00 video frame)
Interleave, preload duration : 504 ms
Writing library : LAME3.99r
Encoding settings : -m s -V 4 -q 2 -lowpass 17 -b 128

Рецензия на КиноПоиске от ProActor

«Тебе повезло, что я не бью женщин. Это в том случае, если ты женщина. А то я больше ни в чем не уверен»
1991 год был поистине невероятным для Голливуда. Помимо лучшего фантастического боевика в истории кино, он был примечателен многими другими событиями. В том числе и выходом двух довольно странных, но оттого не менее классных фильмов с Брюсом Уиллисом. Забавно то, что неоднозначный «Последний бойскаут» получил куда больше лестных отзывов и сборов, чем «Гудзонский ястреб», который для кого-то может показаться даже зрелищнее фильма режиссера Тони Скотта. Майкл Леманн, конечно, тоже в тот момент звезд с неба не хватил, но «крепкий орешек» Брюс в этой приключенческой комедии абсурда явно не хуже пьющего частного детектива. Крутой, и в то же время добродушный грабитель Эдди Хокинс — ради одного этого героя кино стоит увидеть. Вообще, с такими актерами, Как Уиллис, Дэнни Аэйло, Энди Макдауэлл и Ричард Э. Грант, плохого не могло получиться по определению.
Даже несмотря на то, что некоторые абсолютно идиотские моменты могут заткнуть за пояс какого-нибудь «Остина Пауэрса». Сюжет, который начинается вступлением про новую жизнь Эдди, только вышедшего из тюрьмы, в один момент неожиданно превращается чуть ли не в фарс. Откуда ни возьмись появляются еще более крутые мафиози, заставляющие главного героя совершить беспрецедентную кражу. Очередной сумасшедший, страдающий манией величия, вознамерился собрать воедино три «могучих артефакта» Леонардо да Винчи. Ради порабощения мира, разумеется. В этом деле ему, как и следовало ожидать, помогают очень странные ребята, вроде Кит Кэта, Сникерса и жуткого вида женушки Минервы. Это помимо рядовых дуболомов. Эдди же в процессе аферы успевает влюбиться в героиню МакДауэлл, что в общем-то и толкает его на спасение мира. Выглядит все это местами как настоящий балаган.
И если бы авторы немного попридержали абсурдность происходящего, «Гудзонский ястреб» можно было назвать 100% приключенческой комедией. Но вышеупомянутые персонажи, прямо-таки детское дурачество главных героев и совершенно нереальный «экшн» заставляют склониться к определению «пародия». Пародия на криминальные комедии и боевички про спасение планеты (ну, или Америки) от всемогущего злодея. Брюс Уиллис тут отрывается как может, благо простор для хохм, похоже, был просто неограничен. Правда, заявленный бюджет, мягко говоря, удивил — ничего похожего на вложенные 65 млн. не замечено. Ну, пара погонь, пара прыжков и забавные декорации, вроде бы и все. Очень удался этакий «загадочный» санудтрек, такой обычно можно слышать в каждом втором фильме с элементами сказки. Да в целом, это и есть сказка. Местами дурацкая, иногда даже не смешная, но несмотря ни на что, уникальная.
На мой взгляд — один из самых странных и забавных фильмов с Брюсом Уиллисом. Смотреть без улыбки невозможно!

Награды и премии

Золотая малина, 2000 год
Номинации (1):
Худший фильм десятилетия
Золотая малина, 1992 год
Победитель (3):
Худший фильм
Худший режиссер (Майкл Леманн)
Худший сценарий
Номинации (3):
Худшая мужская роль (Брюс Уиллис)
Худшая мужская роль второго плана (Ричард Э. Грант)
Худшая женская роль второго плана (Сандра Бернхард)
-Скриншоты:
         
       
-
Вне форума [Профиль] [ЛС]
Показать сообщения:    
Ответить на тему

Текущее время: Сегодня 13:13

Часовой пояс: GMT + 3



Вы не можете начинать темы
Вы не можете отвечать на сообщения
Вы не можете редактировать свои сообщения
Вы не можете удалять свои сообщения
Вы не можете голосовать в опросах
Вы не можете прикреплять файлы к сообщениям
Вы не можете скачивать файлы