Сегодня идет свободное скачивание без начисления Download

Перевал разбитых сердец / Heartbreak Ridge (Клинт Иствуд) (Военный, Драма 1986) HDTVRip [H.264]

Ответить на тему
 
Автор
Сообщение

Omen ®

Стаж: 4 года 1 месяц

Сообщений: 194359

Торрент-статистика

Пост 24-Июл-2013 19:47

[Цитировать]

Перевал разбитых сердец
Heartbreak Ridge
- Год выпуска: 1986
Жанр: Военный, Драма
Описание фильма:
Клинт Иствуд в роли Тома Хайвея, ветерана корейской и вьетнамской кампаний. Это много выстрадавший и искалеченный войной человек... В новой жизни ему нет места, его не понимают, и все, что ему остается, - это спиртное и воспоминания о прошлом. А также женщина, которая много для него значит... Однако, если потребуется, Том Хайвей сможет взяться за старое ремесло и завершить свой путь достойно - как воин на поле боя...
Режиссер: Клинт Иствуд
Актеры: Клинт Иствуд, Марша Мейсон, Эверет МакГилл, Моузес Ганн, Айлин Хекарт. Бо Свенсон, Бойд Гейнс, Марио Ван Пиблз, Арлен Дин Снайдер, Винсент Ирисарри, Рамон Франко
Продолжительность: 02:09:58
Качество видео: HDTVRip
Перевод: Многоголосый закадровый, одноголосый закадровый
Язык субтитров: Русский, Английский
Вид субтитров: Вшитые

Видеокодек: MPEG-4 AVC/H.264
Битрейт видео: ~3980 Kb\s
Размер кадра: 1040x584
Аудио 1: AC3 2.0, 192 kBit/s, Русский, многоголосый, профессиональный перевод.
Аудио 2: AC3 2.0, 192 kBit/s, Русский, одноголосый перевод.
Аудио 3: AC3 5.1, 448 kBit/s, Английский оригинал.

MI

Общее
Уникальный идентификатор : 230898357195067249365966919916907057063 (0xADB567F122978327982D0DDAEBB2CFA7)
Полное имя : F:\Movie\Heartbreak Ridge.mkv
Формат : Matroska
Версия формата : Version 2
Размер файла : 4,37 Гбайт
Продолжительность : 2 ч. 10 м.
Общий поток : 4810 Кбит/сек
Дата кодирования : UTC 2013-02-07 19:31:25
Программа кодирования : mkvmerge v5.6.0 ('Kenya Kane') built on May 27 2012 16:44:04
Библиотека кодирования : libebml v1.2.3 + libmatroska v1.3.0
Видео
Идентификатор : 1
Формат : AVC
Формат/Информация : Advanced Video Codec
Профиль формата : [url=mailto:[email protected]][email protected][/url]
Параметр CABAC формата : Да
Параметр ReFrames формата : 13 кадров
Идентификатор кодека : V_MPEG4/ISO/AVC
Продолжительность : 2 ч. 10 м.
Битрейт : 3980 Кбит/сек
Ширина : 1040 пикселей
Высота : 584 пикселя
Соотношение сторон : 16:9
Режим частоты кадров : Постоянный
Частота кадров : 23,976 кадра/сек
Цветовое пространство : YUV
Субдискретизация насыщенности : 4:2:0
Битовая глубина : 8 бит
Тип развёртки : Прогрессивная
Бит/(Пиксели*Кадры) : 0.273
Размер потока : 3,53 Гбайт (81%)
Заголовок : AVC [url=mailto:[email protected]][email protected][/url] fps ~3977 kBit/s 2-pass High 4.1 16:9
Библиотека кодирования : x264 core 125 r2200bm 999b753
Настройки программы : cabac=1 / ref=13 / deblock=1:-3:-3 / analyse=0x3:0x133 / me=umh / subme=10 / psy=1 / psy_rd=1.00:0.05 / mixed_ref=1 / me_range=24 / chroma_me=1 / trellis=2 / 8x8dct=1 / cqm=0 / deadzone=21,11 / fast_pskip=0 / chroma_qp_offset=-3 / threads=6 / lookahead_threads=1 / sliced_threads=0 / nr=0 / decimate=1 / interlaced=0 / bluray_compat=0 / constrained_intra=0 / bframes=12 / b_pyramid=2 / b_adapt=2 / b_bias=0 / direct=3 / weightb=1 / open_gop=0 / weightp=2 / keyint=250 / keyint_min=23 / scenecut=40 / intra_refresh=0 / rc=2pass / mbtree=0 / bitrate=3980 / ratetol=1.0 / qcomp=0.90 / qpmin=13 / qpmax=69 / qpstep=4 / cplxblur=10.0 / qblur=0.4 / ip_ratio=1.40 / pb_ratio=1.40 / aq=2:0.85
Язык : English
Default : Да
Forced : Нет
Аудио #1
Идентификатор : 2
Формат : AC-3
Формат/Информация : Audio Coding 3
Расширение режима : CM (complete main)
Параметр Endianness формата : Big
Идентификатор кодека : A_AC3
Продолжительность : 2 ч. 10 м.
Вид битрейта : Постоянный
Битрейт : 192 Кбит/сек
Каналы : 2 канала
Расположение каналов : Front: L R
Частота : 48,0 КГц
Битовая глубина : 16 бит
Метод сжатия : С потерями
Размер потока : 179 Мбайт (4%)
Заголовок : MVO AC3 192 kBit/s 48 kHz 2.0 DD
Язык : Russian
Default : Да
Forced : Нет
Аудио #2
Идентификатор : 3
Формат : AC-3
Формат/Информация : Audio Coding 3
Расширение режима : CM (complete main)
Параметр Endianness формата : Big
Идентификатор кодека : A_AC3
Продолжительность : 2 ч. 10 м.
Вид битрейта : Постоянный
Битрейт : 192 Кбит/сек
Каналы : 2 канала
Расположение каналов : Front: L R
Частота : 48,0 КГц
Битовая глубина : 16 бит
Метод сжатия : С потерями
Размер потока : 179 Мбайт (4%)
Заголовок : AVO AC3 192 kBit/s 48 kHz 2.0 DD
Язык : Russian
Default : Нет
Forced : Нет
Аудио #3
Идентификатор : 4
Формат : AC-3
Формат/Информация : Audio Coding 3
Расширение режима : CM (complete main)
Параметр Endianness формата : Big
Идентификатор кодека : A_AC3
Продолжительность : 2 ч. 10 м.
Вид битрейта : Постоянный
Битрейт : 448 Кбит/сек
Каналы : 6 каналов
Расположение каналов : Front: L C R, Side: L R, LFE
Частота : 48,0 КГц
Битовая глубина : 16 бит
Метод сжатия : С потерями
Размер потока : 417 Мбайт (9%)
Заголовок : English AC3 448 kBit/s 48 kHz 5.1 DD
Язык : English
Default : Нет
Forced : Нет
Текст #1
Идентификатор : 5
Формат : UTF-8
Идентификатор кодека : S_TEXT/UTF8
Идентификатор кодека/Информация : UTF-8 Plain Text
Язык : Russian
Default : Нет
Forced : Нет
Текст #2
Идентификатор : 6
Формат : UTF-8
Идентификатор кодека : S_TEXT/UTF8
Идентификатор кодека/Информация : UTF-8 Plain Text
Язык : English
Default : Нет
Forced : Нет
Скриншоты:
       
Вне форума [Профиль] [ЛС]
Похожие темы
Форум Тема Автор Торрент Отв. Посл. сообщение
./templates/default/images/folder_sticky.gif Зарубежные фильмы с переводом Коллекционный сборник лучших фильмов с русским профессиональным переводом от студий "Русская ночь" и "О-Ла-ла" без цензуры/ 1996-2014 / DVDRip (Обновление 10.03.2016) - xxx с русским переводом Fanatik
0 | 1

0 | 958

0

2016-03-19 18:45
Fanatik Последнее
Показать сообщения:    
Ответить на тему

Текущее время: Сегодня 10:56

Часовой пояс: GMT + 3



Вы не можете начинать темы
Вы не можете отвечать на сообщения
Вы не можете редактировать свои сообщения
Вы не можете удалять свои сообщения
Вы не можете голосовать в опросах
Вы не можете прикреплять файлы к сообщениям
Вы не можете скачивать файлы