Сегодня идет свободное скачивание без начисления Download

Враждебные воды / Hostile Waters (Дэвид Друри) (Военный, Драма, Триллер 1997) DVDRip

Ответить на тему
 
Автор
Сообщение

Omen ®

Стаж: 4 года 1 месяц

Сообщений: 194382

Торрент-статистика

Пост 24-Июл-2013 19:54

[Цитировать]

Враждебные воды
Hostile Waters
- Год выпуска: 1997
Жанр: Военный, Драма, Триллер
Описание фильма:
Советская атомная подводная лодка столкнулась с американской АПЛ типа Аврора (прототип — Лос-Анджелес) в территориальных водах США. В результате полученных повреждений начинается пожар и возникает реальная угроза детонации ядерных боеприпасов. Восточному побережью США угрожает опасность полного уничтожения. Капитан принимает единственно верное решение — затопить лодку и предотвратить взрыв.
Режиссер: Дэвид Друри
Актеры: Рутгер Хауэр, Мартин Шин, Макс фон Сюдов, Кольм Феоре, Роб Кэмпбелл, Харрис Юлин, Реджина Тэйлор, Джон Ротман, Майкл Эттуэлл, Доминик Монаган, Алексис Денисоф.
Продолжительность: 01:33:33
Качество видео: DVDRip
Перевод: Многоголосый закадровый

Видеокодек: DivX 5
Битрейт видео: ~1894 Kb\s
Размер кадра: 640x480
Аудио 1: MP3 1.0, 128 Kb\s | Русский
Аудио 2: AC3 2.0, 192 Kb\s | Английский

MI

Общее
Полное имя : F:\Movie\Vrazhdebnye vody.avi
Формат : AVI
Формат/Информация : Audio Video Interleave
Размер файла : 1,45 Гбайт
Продолжительность : 1 ч. 33 м.
Общий поток : 2226 Кбит/сек
Программа кодирования : VirtualDubMod 1.5.10.2 (build 2540/release)
Библиотека кодирования : VirtualDubMod build 2540/release
Видео
Идентификатор : 0
Формат : MPEG-4 Visual
Параметр BVOP формата : 1
Параметр QPel формата : Нет
Параметр GMC формата : Без точки перехода
Параметр матрицы формата : Default (H.263)
Режим смешивания : Сжатый битовый поток
Идентификатор кодека : DX50
Идентификатор кодека/Подсказка : DivX 5
Продолжительность : 1 ч. 33 м.
Битрейт : 1894 Кбит/сек
Ширина : 640 пикселей
Высота : 480 пикселей
Соотношение сторон : 4:3
Частота кадров : 25,000 кадров/сек
Цветовое пространство : YUV
Субдискретизация насыщенности : 4:2:0
Битовая глубина : 8 бит
Тип развёртки : Прогрессивная
Метод сжатия : С потерями
Бит/(Пиксели*Кадры) : 0.247
Размер потока : 1,24 Гбайт (85%)
Библиотека кодирования : DivX 6.6.1.4
Аудио #1
Идентификатор : 1
Формат : MPEG Audio
Версия формата : Version 1
Профиль формата : Layer 3
Идентификатор кодека : 55
Идентификатор кодека/Подсказка : MP3
Продолжительность : 1 ч. 31 м.
Вид битрейта : Постоянный
Битрейт : 128 Кбит/сек
Каналы : 1 канал
Частота : 48,0 КГц
Метод сжатия : С потерями
Задержка видео : 2 с. 500 мс.
Размер потока : 84,0 Мбайт (6%)
Выравнивание : Разделение по промежуткам
Продолжительность промежутка : 41 мс. (1,02 видеокадр)
Время предзагрузки промежутка : 500 мс.
Аудио #2
Идентификатор : 2
Формат : AC-3
Формат/Информация : Audio Coding 3
Профиль формата : Dolby Digital
Расширение режима : CM (complete main)
Параметр Endianness формата : Big
Идентификатор кодека : 2000
Продолжительность : 1 ч. 33 м.
Вид битрейта : Постоянный
Битрейт : 192 Кбит/сек
Каналы : 2 канала
Расположение каналов : Front: L R
Частота : 48,0 КГц
Битовая глубина : 16 бит
Метод сжатия : С потерями
Размер потока : 128 Мбайт (9%)
Выравнивание : Разделение по промежуткам
Продолжительность промежутка : 40 мс. (1,00 видеокадр)
Время предзагрузки промежутка : 500 мс.

ЭТО ИНТЕРЕСНО!

Реальный капитан К-219 Игорь Британов выступил против этого фильма с судебным иском и заявил, что не давал разрешение использовать факты своей биографии в фильме. В результате, в августе 2004 года Британов выиграл процесс и получил не раскрываемую публично неустойку от киностудии. ВОТ ТАК ВОТ...
Скриншоты:
       
Вне форума [Профиль] [ЛС]
Показать сообщения:    
Ответить на тему

Текущее время: Сегодня 00:21

Часовой пояс: GMT + 3



Вы не можете начинать темы
Вы не можете отвечать на сообщения
Вы не можете редактировать свои сообщения
Вы не можете удалять свои сообщения
Вы не можете голосовать в опросах
Вы не можете прикреплять файлы к сообщениям
Вы не можете скачивать файлы