Сегодня идет свободное скачивание без начисления Download

Монстр / Секс террорист / Il mostro (Роберто Бениньи) (Комедия, 1994) DVDRip [H.264]

Ответить на тему
 
Автор
Сообщение

_Night Speed_33rus ®

Пол:

Стаж: 3 года 11 месяцев

Сообщений: 70

Откуда: Владимир

Торрент-статистика

Пост 25-Июл-2013 20:49

[Цитировать]

Монстр / Секс террорист / Il mostro - Год выпуска: 1994
Жанр: Комедия
Описание фильма:
Лорис - безобидный мелкий мошенник, погрязший в долгах и вынужденный скрываться от кредиторов.Лорис все время от кого-то прячется, пытается заигрывать с женщинами, вечно перебегает дорогу в неположенных местах, и вообще, ведет очень подозрительный образ жизни...
Режиссер: Роберто Бениньи
Актеры: Роберто Бениньи , Мишель Блан , Жан-Клод Бриали , Франко Месколини
Продолжительность: 01:53:02
Качество видео: DVDRip
Перевод: Многоголосый закадровый , Двуголосый закадровый , Одноголосый (Мудров)

Видеокодек: MPEG-4 AVC/H.264
Битрейт видео: ~2000 Kbps
Размер кадра: 704x384
Aудио 1: Dolby AC3 2.0, 160 Kbps 48000Hz | Многоголосый закадровый
Aудио 2: Dolby AC3 2.0, 160 Kbps 48000Hz | Двуголосый закадровый
Aудио 3: Dolby AC3 2.0, 160 Kbps 48000Hz | Одноголосый закадровый (Мудров)

MediaInfo

General
Unique ID : 187019816803883817813691360263105325635 (0x8CB2B4DFA69FA284BD7C654D2E6AAA43)
Complete name : Секс террорист.mkv
Format : Matroska
Format version : Version 4 / Version 2
File size : 1.96 GiB
Duration : 1h 53mn
Overall bit rate : 2 481 Kbps
Movie name : Секс террорист/ Il Mostro (rip by smithland)
Encoded date : UTC 2010-02-22 21:41:31
Writing application : mkvmerge v5.9.0 ('On The Loose')
Writing library : libebml v1.3.0 + libmatroska v1.4.0
Attachment : Yes
Video
ID : 1
Format : AVC
Format/Info : Advanced Video Codec
Format profile : [url=mailto:[email protected]][email protected][/url]
Format settings, CABAC : Yes
Format settings, ReFrames : 12 frames
Codec ID : V_MPEG4/ISO/AVC
Duration : 1h 53mn
Bit rate : 2 000 Kbps
Width : 704 pixels
Height : 384 pixels
Display aspect ratio : 16:9
Original display aspect ratio : 16:9
Frame rate mode : Constant
Frame rate : 25.000 fps
Color space : YUV
Chroma subsampling : 4:2:0
Bit depth : 8 bits
Scan type : Progressive
Bits/(Pixel*Frame) : 0.296
Stream size : 1.54 GiB (79%)
Writing library : x264 core 129 r2230
Encoding settings : cabac=1 / ref=12 / deblock=1:-3:-1 / analyse=0x3:0x133 / me=esa / subme=11 / psy=1 / psy_rd=1.50:0.70 / mixed_ref=0 / me_range=20 / chroma_me=1 / trellis=2 / 8x8dct=1 / cqm=0 / deadzone=21,11 / fast_pskip=1 / chroma_qp_offset=-4 / threads=6 / lookahead_threads=1 / sliced_threads=0 / nr=0 / decimate=1 / interlaced=0 / bluray_compat=0 / constrained_intra=0 / bframes=7 / b_pyramid=2 / b_adapt=1 / b_bias=0 / direct=3 / weightb=0 / open_gop=1 / weightp=0 / keyint=250 / keyint_min=25 / scenecut=60 / intra_refresh=0 / rc_lookahead=40 / rc=abr / mbtree=0 / bitrate=2000 / ratetol=1.0 / qcomp=0.50 / qpmin=10 / qpmax=69 / qpstep=4 / vbv_maxrate=20000 / vbv_bufsize=20000 / nal_hrd=none / ip_ratio=1.40 / pb_ratio=1.30 / aq=1:2.00
Language : Russian
Default : Yes
Forced : Yes
Audio #1
ID : 2
Format : AC-3
Format/Info : Audio Coding 3
Mode extension : CM (complete main)
Format settings, Endianness : Big
Codec ID : A_AC3
Duration : 1h 53mn
Bit rate mode : Constant
Bit rate : 160 Kbps
Channel(s) : 2 channels
Channel positions : Front: L R
Sampling rate : 48.0 KHz
Bit depth : 16 bits
Compression mode : Lossy
Delay relative to video : -5ms
Stream size : 129 MiB (6%)
Title : MVO
Language : Russian
Default : Yes
Forced : Yes
Audio #2
ID : 3
Format : AC-3
Format/Info : Audio Coding 3
Mode extension : CM (complete main)
Format settings, Endianness : Big
Codec ID : A_AC3
Duration : 1h 53mn
Bit rate mode : Constant
Bit rate : 160 Kbps
Channel(s) : 2 channels
Channel positions : Front: L R
Sampling rate : 48.0 KHz
Bit depth : 16 bits
Compression mode : Lossy
Delay relative to video : -5ms
Stream size : 129 MiB (6%)
Title : DVO
Language : Russian
Default : No
Forced : No
Audio #3
ID : 4
Format : AC-3
Format/Info : Audio Coding 3
Mode extension : CM (complete main)
Format settings, Endianness : Big
Codec ID : A_AC3
Duration : 1h 53mn
Bit rate mode : Constant
Bit rate : 160 Kbps
Channel(s) : 2 channels
Channel positions : Front: L R
Sampling rate : 48.0 KHz
Bit depth : 16 bits
Compression mode : Lossy
Delay relative to video : -5ms
Stream size : 129 MiB (6%)
Title : Мудров
Language : Russian
Default : No
Forced : No
Menu
00:00:00.000 : :ëࢠ 01
00:03:40.720 : :ëࢠ 02
00:07:52.520 : :ëࢠ 03
00:10:29.920 : :ëࢠ 04
00:11:00.960 : :ëࢠ 05
00:12:42.960 : :ëࢠ 06
00:17:32.800 : :ëࢠ 07
00:27:57.200 : :ëࢠ 08
00:30:00.320 : :ëࢠ 09
00:35:41.120 : :ëࢠ 10
00:38:20.640 : :ëࢠ 11
00:45:15.560 : :ëࢠ 12
00:55:51.440 : :ëࢠ 13
01:01:29.160 : :ëࢠ 14
01:08:42.400 : :ëࢠ 15
01:17:51.040 : :ëࢠ 16
01:27:03.920 : :ëࢠ 17
01:33:21.280 : :ëࢠ 18
01:36:01.960 : :ëࢠ 19
01:46:23.320 : :ëࢠ 20
01:53:01.480 : :ëࢠ 21
Скриншоты:
       
       
Вне форума [Профиль] [ЛС]
Похожие темы
Форум Тема Автор Торрент Отв. Посл. сообщение
./templates/default/images/folder_dl.gif T Новинки (HD|DVD|BD|WEB|TV|SAT|PDTV|-Rip) Финансовый монстр / Money Monster (Джоди Фостер) [2016, триллер, драма, криминал, HDRip] Line Russian Mafia
1 | 0

0 | 297

10

2016-08-11 10:57
Russian Mafia Последнее
Показать сообщения:    
Ответить на тему

Текущее время: Сегодня 01:15

Часовой пояс: GMT + 3



Вы не можете начинать темы
Вы не можете отвечать на сообщения
Вы не можете редактировать свои сообщения
Вы не можете удалять свои сообщения
Вы не можете голосовать в опросах
Вы не можете прикреплять файлы к сообщениям
Вы не можете скачивать файлы