Сегодня идет свободное скачивание без начисления Download

Как потерять жену и найти любовницу / Come perdere una moglie e trovare un'amante (Паскуале Феста Кампаниле) (Комедия, 1978) DVDRip [H.264]

Ответить на тему
 
Автор
Сообщение

_Night Speed_33rus ®

Пол:

Стаж: 3 года 11 месяцев

Сообщений: 70

Откуда: Владимир

Торрент-статистика

Пост 25-Июл-2013 21:01

[Цитировать]

Как потерять жену и найти любовницу / Come perdere una moglie e trovare un'amante - Год выпуска: 1978
Жанр: Комедия
Производство: Италия/Cinematografica Alex
Описание фильма:
Главный герой фильма Альберто, обманутый своей женой, отправляется в одно место в горах, для того чтобы отвлечься. Там он встречает женщину, которая оказалась там, по тем же причинам, что и он…
Режиссер: Паскуале Феста Кампаниле
Сценарий: Роберто Леони, Луиджи Малерба, Джанфранко Руччери
Продюсер: Луиджи Боргезе
Актеры: Джонни Дорелли, Барбара Буше, Карло Баньо, Эльза Ваззолер, Феличе Андреази, Анни Папа, Джино Перниче, Уго Мария Мороси, Тони Уччи, Энцо Каннавале
Продолжительность: 01:32:36
Качество видео: DVDRip
Перевод: Многоголосый закадровый

Дата мировой премьеры: 28 ноября 1978
Видеокодек: MPEG-4 AVC/H.264
Битрейт видео: ~1930 Кбит/сек
Размер кадра: 720x400
Аудиокодек: AC3 2.0
Битрейт аудио: 192 kbps

MediaInfo:

Общее
Уникальный идентификатор : 244906902063905521968473864271461762785 (0xB83F5A874FE5BA359A79171B1AFA46E1)
Полное имя : H:\Downloads\Как потерять жену и найти любовницу.mkv
Формат : Matroska
Размер файла : 1,37 Гбайт
Продолжительность : 1 ч. 32 м.
Общий поток : 2124 Кбит/сек
Дата кодирования : UTC 2013-07-23 12:36:57
Программа кодирования : mkvmerge v6.0.0 ('Coming Up For Air') built on Jan 20 2013 09:52:00
Библиотека кодирования : libebml v1.3.0 + libmatroska v1.4.0
Видео
Идентификатор : 1
Формат : AVC
Формат/Информация : Advanced Video Codec
Профиль формата : [url=mailto:[email protected]][email protected][/url]
Параметр CABAC формата : Да
Параметр ReFrames формата : 8 кадров
Параметры GOP формата : M=4, N=29
Идентификатор кодека : V_MPEG4/ISO/AVC
Продолжительность : 1 ч. 32 м.
Битрейт : 1930 Кбит/сек
Ширина : 720 пикс.
Высота : 400 пикс.
Соотношение сторон : 16:9
Частота кадров : 25,000 кадр/сек
Цветовое пространство : YUV
Подвыборка цветности : 4:2:0
Битовая глубина : 8 бит
Тип развёртки : Прогрессивная
Бит/(Пиксели*Кадры) : 0.268
Размер потока : 1,22 Гбайт (89%)
Заголовок : Come perdere una moglie e trovare un'amante
Библиотека кодирования : x264 core 125 r2208 d9d2288
Настройки программы : cabac=1 / ref=8 / deblock=1:-1:-1 / analyse=0x3:0x133 / me=umh / subme=9 / psy=1 / psy_rd=1.00:0.10 / mixed_ref=1 / me_range=32 / chroma_me=1 / trellis=2 / 8x8dct=1 / cqm=0 / deadzone=21,11 / fast_pskip=0 / chroma_qp_offset=-3 / threads=6 / lookahead_threads=1 / sliced_threads=0 / nr=0 / decimate=1 / interlaced=0 / bluray_compat=0 / constrained_intra=0 / bframes=3 / b_pyramid=2 / b_adapt=2 / b_bias=0 / direct=3 / weightb=1 / open_gop=0 / weightp=2 / keyint=250 / keyint_min=25 / scenecut=40 / intra_refresh=0 / rc_lookahead=60 / rc=2pass / mbtree=1 / bitrate=1930 / ratetol=1.0 / qcomp=0.60 / qpmin=10 / qpmax=51 / qpstep=4 / cplxblur=20.0 / qblur=0.5 / ip_ratio=1.40 / aq=1:1.00
Язык : Italian
Аудио
Идентификатор : 2
Формат : AC-3
Формат/Информация : Audio Coding 3
Расширение режима : CM (complete main)
Идентификатор кодека : A_AC3
Продолжительность : 1 ч. 32 м.
Вид битрейта : Постоянный
Битрейт : 192 Кбит/сек
Каналы : 2 канала
Расположение каналов : Front: L R
Частота : 48,0 КГц
Битовая глубина : 16 бит
Метод сжатия : С потерями
Размер потока : 127 Мбайт (9%)
Заголовок : Многоголосый закадровый
Язык : Russian
Скриншоты:                    
Вне форума [Профиль] [ЛС]
Показать сообщения:    
Ответить на тему

Текущее время: Сегодня 22:20

Часовой пояс: GMT + 3



Вы не можете начинать темы
Вы не можете отвечать на сообщения
Вы не можете редактировать свои сообщения
Вы не можете удалять свои сообщения
Вы не можете голосовать в опросах
Вы не можете прикреплять файлы к сообщениям
Вы не можете скачивать файлы