Today is a free download without charge Download

Animal Planet: Львиный рык. Серия №2 / Roaring with Pride (2013) HDTVRip

Reply to topic
 
Author
Message

UndegraundMen ®

Longevity: 6 years 9 months

Posts: 25145

Торрент-статистика

Post 26-Jul-2013 11:00

[Quote]

Animal Planet: Львиный рык. Серия №2 / Roaring with Pride (2013) HDTVRip - Режиссер / Телекомпания: Animal Planet
Русское название: Львиный рык
Оригинальное название: Roaring with Pride
Год выпуска: 2013
Жанр: Документальный
Описание:
Предлагаем присоединиться к сотрудникам фонда ALERT, работающим в Африке, и провести целый год вместе с 12 львами, выпущенными в заповедник и изолированными от человека.
Режиссёр: Дон Персиваль / Don Percival
В выпуске: 02. ALERT Pride - The Lion's Share
Текст читал: Ольга зубкова и Александр Гаврилин
Озвучено: АРК•ТВ
Перевод: Профессиональный (двухголосый закадровый)
Продолжительность: ~ 00:43:37
Видеокодек: XVID
Битрейт видео: ~1842 kb/s
Размер кадра: 720 x 400
Качество видео: HDTVRip
Аудиокодек: AC-3, 6ch.
Битрейт аудио: 384 kb/s

MediaInfo

Формат : AVI
Формат/Информация : Audio Video Interleave
Размер файла : 700 Мбайт
Продолжительность : 43 м.
Общий поток : 2243 Кбит/сек
Программа кодирования : VirtualDubMod 1.5.10.3 | www.virtualdub-fr.org || (build 2550/release)
Библиотека кодирования : VirtualDubMod build 2550/release
Видео
Идентификатор : 0
Формат : MPEG-4 Visual
Профиль формата : Advanced [email protected]
Параметр BVOP формата : 1
Параметр QPel формата : Нет
Параметр GMC формата : Без точки перехода
Параметр матрицы формата : Выборочная
Идентификатор кодека : XVID
Идентификатор кодека/Подсказка : XviD
Продолжительность : 43 м.
Битрейт : 1849 Кбит/сек
Ширина : 720 пикселей
Высота : 400 пикселей
Соотношение сторон : 16:9
Частота кадров : 25,000 кадров/сек
Цветовое пространство : YUV
Субдискретизация насыщенности : 4:2:0
Битовая глубина : 8 бит
Тип развёртки : Прогрессивная
Метод сжатия : С потерями
Бит/(Пиксели*Кадры) : 0.257
Размер потока : 577 Мбайт (82%)
Библиотека кодирования : XviD 73
Аудио
Идентификатор : 1
Формат : AC-3
Формат/Информация : Audio Coding 3
Расширение режима : CM (complete main)
Идентификатор кодека : 2000
Продолжительность : 43 м.
Вид битрейта : Постоянный
Битрейт : 384 Кбит/сек
Каналы : 6 каналов
Расположение каналов : Front: L C R, Side: L R, LFE
Частота : 48,0 КГц
Битовая глубина : 16 бит
Метод сжатия : С потерями
Размер потока : 120 Мбайт (17%)
Выравнивание : Разделение по промежуткам
Продолжительность промежутка : 40 мс. (1,00 видеокадр)
Время предзагрузки промежутка : 500 мс.
Скриншоты:                    
Other forum [Profile] [PM]
Display posts from previous:    
Reply to topic

The time now is: Today 21:24

All times are GMT + 3 Hours



You cannot post new topics in this forum
You cannot reply to topics in this forum
You cannot edit your posts in this forum
You cannot delete your posts in this forum
You cannot vote in polls in this forum
You cannot attach files in this forum
You cannot download files in this forum